Сегодня идет свободное скачивание без начисления Download

Особое задание / Отряд фантастического назначения / Смертники / Dragon Attack / Fantasy Mission Force / Mi ni te gong dui (1982) DVDRip

Ответить на тему
 
Автор
Сообщение

Omen ®

Стаж: 4 года 1 месяц

Сообщений: 194394

Торрент-статистика

Пост 10-Ноя-2013 22:04

[Цитировать]

Особое задание / Отряд фантастического назначения / Смертники
Dragon Attack / Fantasy Mission Force / Mi ni te gong dui
- Год выпуска: 1982
Производство: Тайвань, Гонконг
Жанр: Комедия, Приключения, Боевик--Описание фильма:
Отряду коммандос, собранному из отпетых мошенников и авантюристов, поставлена боевая задача освободить из плена генералов союзных войск.
Демонстрируя мастерское владение рукопашным боем, отряд продвигается к поставленной цели, не зная, что выжить суждено только непревзойденному Сэми.--Режиссер: Чу Иньпин
Актеры: Джеки Чан, Бриджитт Лин, Джимми Ю Ванг, Юех Сун, Тао Да Вэй, Юнг Фэнг, Шиу Бу Лия, Гоу Линг Фенг, Адам Чэн, Линг Чанг--Продолжительность: 01:29:39
Качество видео: DVDRip
Перевод: многоголосый закадровый, 3хавторский одноголосый закадровый-- --Видеокодек: Xvid
Битрейт видео: ~1550 Кбит/сек
Размер кадра: 704 x 304
Аудио 1: 48 kHz, AC3 Dolby Digital, 2/0 (L,R) ch, ~192.00 kbps avg — "Видеофильм"
Аудио 2: 48 kHz, AC3 Dolby Digital, 2/0 (L,R) ch, ~192.00 kbps avg — Сергей Визгунов
Аудио 3: 48 kHz, AC3 Dolby Digital, 2/0 (L,R) ch, ~192.00 kbps avg — "Арена"
Аудио 4: 48 kHz, AC3 Dolby Digital, 2/0 (L,R) ch, ~192.00 kbps avg — неизвестный, перевод с немецкого-

MediaInfo

Код:
Общее
Формат                                   : AVI
Формат/Информация                        : Audio Video Interleave
Размер файла                             : 1,47 Гбайт
Продолжительность                        : 1 ч. 29 м.
Общий поток                              : 2342 Кбит/сек
Программа кодирования                    : VirtualDubMod 1.5.10.2 (build 2540/release)
Библиотека кодирования                   : VirtualDubMod build 2540/release
Видео
Идентификатор                            : 0
Формат                                   : MPEG-4 Visual
Профиль формата                          : Advanced [email protected]
Параметр BVOP формата                    : 2
Параметр QPel формата                    : Нет
Параметр GMC формата                     : Без точки перехода
Параметр матрицы формата                 : Default (MPEG)
Режим смешивания                         : Сжатый битовый поток
Идентификатор кодека                     : XVID
Идентификатор кодека/Подсказка           : XviD
Продолжительность                        : 1 ч. 29 м.
Битрейт                                  : 1550 Кбит/сек
Ширина                                   : 704 пикселя
Высота                                   : 304 пикселя
Соотношение сторон                       : 2,35:1
Частота кадров                           : 25,000 кадров/сек
Цветовое пространство                    : YUV
Субдискретизация насыщенности            : 4:2:0
Битовая глубина                          : 8 бит
Тип развёртки                            : Прогрессивная
Метод сжатия                             : С потерями
Бит/(Пиксели*Кадры)                      : 0.290
Размер потока                            : 994 Мбайт (66%)
Библиотека кодирования                   : XviD 1.2.1 (UTC 2008-12-04)
Аудио #1
Идентификатор                            : 1
Формат                                   : AC-3
Формат/Информация                        : Audio Coding 3
Расширение режима                        : CM (complete main)
Параметр Endianness формата              : Big
Идентификатор кодека                     : 2000
Продолжительность                        : 1 ч. 29 м.
Вид битрейта                             : Постоянный
Битрейт                                  : 192 Кбит/сек
Каналы                                   : 2 канала
Расположение каналов                     : Front: L R
Частота                                  : 48,0 КГц
Битовая глубина                          : 16 бит
Метод сжатия                             : С потерями
Размер потока                            : 123 Мбайт (8%)
Выравнивание                             : Разделение по промежуткам
Продолжительность промежутка             : 40  мс. (1,00 видеокадр)
Время предзагрузки промежутка            : 500  мс.
Аудио #2
Идентификатор                            : 2
Формат                                   : AC-3
Формат/Информация                        : Audio Coding 3
Расширение режима                        : CM (complete main)
Параметр Endianness формата              : Big
Идентификатор кодека                     : 2000
Продолжительность                        : 1 ч. 29 м.
Вид битрейта                             : Постоянный
Битрейт                                  : 192 Кбит/сек
Каналы                                   : 2 канала
Расположение каналов                     : Front: L R
Частота                                  : 48,0 КГц
Битовая глубина                          : 16 бит
Метод сжатия                             : С потерями
Размер потока                            : 123 Мбайт (8%)
Выравнивание                             : Разделение по промежуткам
Продолжительность промежутка             : 40  мс. (1,00 видеокадр)
Время предзагрузки промежутка            : 500  мс.
Аудио #3
Идентификатор                            : 3
Формат                                   : AC-3
Формат/Информация                        : Audio Coding 3
Расширение режима                        : CM (complete main)
Параметр Endianness формата              : Big
Идентификатор кодека                     : 2000
Продолжительность                        : 1 ч. 29 м.
Вид битрейта                             : Постоянный
Битрейт                                  : 192 Кбит/сек
Каналы                                   : 2 канала
Расположение каналов                     : Front: L R
Частота                                  : 48,0 КГц
Битовая глубина                          : 16 бит
Метод сжатия                             : С потерями
Размер потока                            : 123 Мбайт (8%)
Выравнивание                             : Разделение по промежуткам
Продолжительность промежутка             : 40  мс. (1,00 видеокадр)
Время предзагрузки промежутка            : 500  мс.
Аудио #4
Идентификатор                            : 4
Формат                                   : AC-3
Формат/Информация                        : Audio Coding 3
Расширение режима                        : CM (complete main)
Параметр Endianness формата              : Big
Идентификатор кодека                     : 2000
Продолжительность                        : 1 ч. 29 м.
Вид битрейта                             : Постоянный
Битрейт                                  : 192 Кбит/сек
Каналы                                   : 2 канала
Расположение каналов                     : Front: L R
Частота                                  : 48,0 КГц
Битовая глубина                          : 16 бит
Метод сжатия                             : С потерями
Размер потока                            : 123 Мбайт (8%)
Выравнивание                             : Разделение по промежуткам
Продолжительность промежутка             : 40  мс. (1,00 видеокадр)
Время предзагрузки промежутка            : 500  мс.
Скриншоты:        
       
Вне форума [Профиль] [ЛС]
Похожие темы
Форум Тема Автор Торрент Отв. Посл. сообщение
./templates/default/images/folder_dl.gif XBox360 | Игры [XBOX360] Особо опасен: Орудие судьбы / Wanted: Weapons of Fate [FREEBOOT / RUSSOUND] Omen
1 | 0

0 | 935

10

2015-02-19 12:01
Omen Последнее
./templates/default/images/folder_dl.gif Разное Брэндон Картер | ULTIMATE MASS: 7 секретных способов чертовски быстро нарастить мышцы (2014) [PDF, DOCX] [email protected]
1 | 0

0 | 114

0

2016-11-03 17:22
[email protected] Последнее
Показать сообщения:    
Ответить на тему

Текущее время: Сегодня 15:10

Часовой пояс: GMT + 3



Вы не можете начинать темы
Вы не можете отвечать на сообщения
Вы не можете редактировать свои сообщения
Вы не можете удалять свои сообщения
Вы не можете голосовать в опросах
Вы не можете прикреплять файлы к сообщениям
Вы не можете скачивать файлы