Сегодня идет свободное скачивание без начисления Download

Дело Доминичи / L\'affaire Dominici (1973) DVDRip

Ответить на тему
 
Автор
Сообщение

UndegraundMen ®

Стаж: 3 года 9 месяцев

Сообщений: 28329

Торрент-статистика

Пост 12-Ноя-2013 23:00

[Цитировать]

Дело Доминичи / L'affaire Dominici (1973) DVDRip- Русское название: Дело Доминичи
Оригинальное название: L'affaire Dominici
Страна: Франция, Италия, Испания
Год выпуска: 1973
Жанр: Детектив, Драма
Описание фильма:
Фильм основан на реальных событиях, произошедших во Франции в 1950-х годах.
Джек и Анн Драммонд, сопровождаемые своей дочерью десяти лет, отправились к друзьям на Лазурный берег. Они решили провести ночь 4 августа 1952 года на берегу моря. На следующий день там были обнаружены их изуродованные тела. Подозрения пали на семью Доминичи, проживавшую неподалеку на ферме возле деревни Лурс в Провансе...
В виновности Густава Доминичи, обнаружившего тела убитых, был уверен комиссар Себей. После продолжительного расследования (более года) обвинили главу семьи Доминичи. В ноябре 1954 был начат процесс Гастона Доминичи, но хотя виновность его была очень сомнительна (не были добыты улики, все основывалось только на словах подследственных), присяжные вынесли обвинительный вердикт, и осужденного приговорили к гильотинированию. Обвиняемый не признал своей вины, и Президент Республики Рене Коти в 1957 заменил смертный приговор на вечные принудительные работы. В 1960 Шарль де Голль решил его помиловать, и Гастона освободили. Он умер пятью годами позже в возрасте 88 лет.
Сегодня его внук Ален добивается пересмотра дела деда. Ален убежден, что совершенные преступления не имели никакого отношения к семье Доминичи.
Режиссер: Клод Бернар-Обер
Актеры: Жан Габен, Жерар Депардьё, Джинн Аллард, Макс Амиль, Мишель Бертэ, Жан-Пьер Кастальди, Поль Кроше, Жерар Дарьё, Колин Дрэйк, Женевьев Фонтанель
Продолжительность: 01:40:04
Качество видео: DVDRip
Перевод: Профессиональный, двухголосый закадровый (НТВ)

Дата мировой премьеры: 14 августа 1973
Видеокодек: DivX 5
Битрейт видео: ~1780 Kbps
Размер кадра: 704 х 432
Аудио 1: AC3, 2 ch, 192 kbps (русский)
Аудио 2: MP3, 2 ch, 128 kbps (французский)

MediaInfo

General
Complete name Dominici.Affair.1973.DVDRip.avi
Format : AVI
Format/Info : Audio Video Interleave
File size : 1.46 GiB
Duration : 1h 40mn
Overall bit rate mode : Variable
Overall bit rate : 2 091 Kbps
Writing application : VirtualDubMod 1.5.4.1 (build 2178/release)
Writing library : VirtualDubMod build 2178/release
Video
ID : 0
Format : MPEG-4 Visual
Format settings, BVOP : 1
Format settings, QPel : No
Format settings, GMC : No warppoints
Format settings, Matrix : Default (H.263)
Muxing mode : Packed bitstream
Codec ID : DX50
Codec ID/Hint : DivX 5
Duration : 1h 40mn
Bit rate : 1 781 Kbps
Width : 704 pixels
Height : 432 pixels
Display aspect ratio : 16:10
Frame rate : 25.000 fps
Color space : YUV
Chroma subsampling : 4:2:0
Bit depth : 8 bits
Scan type : Progressive
Compression mode : Lossy
Bits/(Pixel*Frame) : 0.234
Stream size : 1.24 GiB (85%)
Writing library : DivX 6.8.5 (UTC 2009-08-20)
Audio #1
ID : 1
Format : AC-3
Format/Info : Audio Coding 3
Mode extension : CM (complete main)
Format settings, Endianness : Big
Codec ID : 2000
Duration : 1h 40mn
Bit rate mode : Constant
Bit rate : 192 Kbps
Channel count : 2 channels
Channel positions : Front: L R
Sampling rate : 48.0 KHz
Bit depth : 16 bits
Compression mode : Lossy
Stream size : 137 MiB (9%)
Alignment : Split accross interleaves
Interleave, duration : 96 ms (2.40 video frames)
Interleave, preload duration : 96 ms
Language : Russian
Audio #2
ID : 2
Format : MPEG Audio
Format version : Version 1
Format profile : Layer 3
Mode : Joint stereo
Codec ID : 55
Codec ID/Hint : MP3
Duration : 1h 40mn
Bit rate mode : Variable
Bit rate : 104 Kbps
Nominal bit rate : 128 Kbps
Channel count : 2 channels
Sampling rate : 48.0 KHz
Compression mode : Lossy
Stream size : 74.4 MiB (5%)
Alignment : Aligned on interleaves
Interleave, duration : 24 ms (0.60 video frame)
Interleave, preload duration : 565 ms
Writing library : LAME3.98r
Encoding settings : -m j -V 4 -q 2 -lowpass 17 --abr 128
Language : Francais
Вне форума [Профиль] [ЛС]
Показать сообщения:    
Ответить на тему

Текущее время: Сегодня 00:20

Часовой пояс: GMT + 3



Вы не можете начинать темы
Вы не можете отвечать на сообщения
Вы не можете редактировать свои сообщения
Вы не можете удалять свои сообщения
Вы не можете голосовать в опросах
Вы не можете прикреплять файлы к сообщениям
Вы не можете скачивать файлы