Сегодня идет свободное скачивание без начисления Download

Садовник из Аржантей / Le jardinier d\'Argenteuil (1966) DVDRip

Ответить на тему
 
Автор
Сообщение

UndegraundMen ®

Стаж: 3 года 9 месяцев

Сообщений: 28329

Торрент-статистика

Пост 14-Ноя-2013 04:54

[Цитировать]

Садовник из Аржантей / Le jardinier d'Argenteuil (1966) DVDRip- Русское название: Садовник из Аржантей
Оригинальное название: Le jardinier d'Argenteuil
Производство: Франция, Германия
Год выпуска: 1966
Жанр: Комедия, Криминал
Описание фильма:
Если в этом подлом мире можно было кого-нибудь назвать счастливым, то конечно этого человека (Жан Габен), потому что он занимался лишь своим садом. Он был не такой как другие, презирал газеты, радио и телевидение. Он любил пешие прогулки, был любезен и услужлив. Он был частью пейзажа этого пригорода, где вокруг его жилища вырастали громады новостроек. В Париж он ездил лишь ненадолго. Отпуска у него не было никогда, жил он в железнодорожном вагоне. Он любил рисовать, поскольку был наделен чувством света и способностью к рисунку. Это был человек многосторонний, поэт на свой лад и, несомненно, мудрый. Все его звали садовник из Аржантей.
Правда у него было одно экзотичное хобби: каждую ночь Мартен печатает фальшивые деньги! Вот уже 20 лет он рисует только мелкие купюры.
Режиссер: Жан-Поль Ле Шануа
Актеры: Жан Габен, Лизлотт Пюльве, Пьер Вернье, Альфред Адам, Ноэль Рокeвер, Жан Тисье, Мари Марке, Курд Юрген, Жанна Фюзье-Жир, Серж Генсбур
Продолжительность: 01:26:47
Качество видео: DVDRip
Перевод: Многоголосый закадровый

Дата мировой премьеры: 7 октября 1966
Видеокодек: DivX 5
Битрейт видео: ~2145 Kbps
Размер кадра: 704 x 304
Аудио 1: MP3, 2 ch, 128 kbps (русский)
Аудио 2: MP3, 2 ch, 128 kbps (французский)

MediaInfo

General
Complete name Gardener.Of.Argenteuil.1966.DVDRip.avi
Format : AVI
Format/Info : Audio Video Interleave
File size : 1.46 GiB
Duration : 1h 26mn
Overall bit rate : 2 410 Kbps
Writing application : VirtualDubMod 1.5.4.1 (build 2178/release)
Writing library : VirtualDubMod build 2178/release
Video
ID : 0
Format : MPEG-4 Visual
Format settings, BVOP : 1
Format settings, QPel : No
Format settings, GMC : No warppoints
Format settings, Matrix : Default (H.263)
Muxing mode : Packed bitstream
Codec ID : DX50
Codec ID/Hint : DivX 5
Duration : 1h 26mn
Bit rate : 2 145 Kbps
Width : 704 pixels
Height : 304 pixels
Display aspect ratio : 2.35:1
Frame rate : 25.000 fps
Color space : YUV
Chroma subsampling : 4:2:0
Bit depth : 8 bits
Scan type : Progressive
Compression mode : Lossy
Bits/(Pixel*Frame) : 0.401
Stream size : 1.30 GiB (89%)
Writing library : DivX 6.8.5 (UTC 2009-08-20)
Audio #1
ID : 1
Format : MPEG Audio
Format version : Version 1
Format profile : Layer 3
Mode : Joint stereo
Mode extension : MS Stereo
Codec ID : 55
Codec ID/Hint : MP3
Duration : 1h 26mn
Bit rate mode : Constant
Bit rate : 128 Kbps
Channel count : 2 channels
Sampling rate : 48.0 KHz
Compression mode : Lossy
Stream size : 79.5 MiB (5%)
Alignment : Aligned on interleaves
Interleave, duration : 80 ms (2.00 video frames)
Interleave, preload duration : 504 ms
Writing library : LAME3.98r
Encoding settings : -m j -V 4 -q 2 -lowpass 17 -b 128
Language : Russian
Audio #2
ID : 2
Format : MPEG Audio
Format version : Version 1
Format profile : Layer 3
Mode : Joint stereo
Mode extension : MS Stereo
Codec ID : 55
Codec ID/Hint : MP3
Duration : 1h 26mn
Bit rate mode : Constant
Bit rate : 128 Kbps
Channel count : 2 channels
Sampling rate : 48.0 KHz
Compression mode : Lossy
Stream size : 79.5 MiB (5%)
Alignment : Aligned on interleaves
Interleave, duration : 80 ms (2.00 video frames)
Interleave, preload duration : 504 ms
Writing library : LAME3.98r
Encoding settings : -m j -V 4 -q 2 -lowpass 17 -b 128
Language : Francais
Скриншоты:          
         
Время раздачи: с 09:00 до 20:00
Вне форума [Профиль] [ЛС]
Похожие темы
Форум Тема Автор Торрент Отв. Посл. сообщение
./templates/default/images/folder_dl.gif Разножанровые коллекции книг и библиотеки Сергей Садов - Сборник произведений [2002-2012] [FB2] Omen
1 | 0

0 | 507

8

2012-12-15 22:08
Omen Последнее
./templates/default/images/folder_dl.gif Домоводство, Хобби, Бизнес Геннадий Распопов | Как создать эко огород. Советы врача и садовода с 40-летним стажем! (2016) [FB2, RTF] Omen
1 | 0

0 | 138

4

2016-03-09 21:54
Omen Последнее
Показать сообщения:    
Ответить на тему

Текущее время: Сегодня 14:49

Часовой пояс: GMT + 3



Вы не можете начинать темы
Вы не можете отвечать на сообщения
Вы не можете редактировать свои сообщения
Вы не можете удалять свои сообщения
Вы не можете голосовать в опросах
Вы не можете прикреплять файлы к сообщениям
Вы не можете скачивать файлы