Сегодня идет свободное скачивание без начисления Download

Мюнхгаузен / Münchhausen (1943) DVDRip

Ответить на тему
 
Автор
Сообщение

UndegraundMen ®

Стаж: 3 года 9 месяцев

Сообщений: 28329

Торрент-статистика

Пост 15-Ноя-2013 23:00

[Цитировать]

Мюнхгаузен / Münchhausen (1943) DVDRip- Русское название: Мюнхгаузен
Оригинальное название: Münchhausen
Производство: Германия
Год выпуска: 1943
Жанр: Приключения, Фантастика, Комедия
Описание фильма:
Жизнь и удивительные приключения барона Иеронимуса Карла Фридриха
фон Мюнхаузена, "всегда говорившего только правду", до сих пор будоражат умы читателей. Популярность барона оправдана его редким талантом — никогда не терять присутствия духа и находить выход из самых ужасных ситуаций.
Выходом на экраны Европы фильма "Мюнхгаузен" немецкая студия UFA отметила свое двадцатипятилетние, а заодно доказала Голливуду, что способна снимать крупномасштабные цветные фильмы. Яркие краски костюмов и фантастические спецэффекты были признаны одними из лучших для того времени. Сценаристы весьма свободно переложили на пленку приключения всемирно известного барона-путешественника, при этом нарочито демонстрируя достоинства немца Мюнхгаузена и напротив, показывая в смешном виде представителей иных наций. После войны члены советской комиссии в Нюрнберге потребовали запретить эту ленту, поскольку в ней авантюрист Мюнхгаузен оказывается любовником императрицы Екатерины. Но даже спустя десятилетия этот фильм смотрится как немного старомодная, но очень яркая и красочная фантастическая сказка.
Это восстановленная версия, смонтированная при содействии фонда Murnau в 1995 году. Оригинальная версия, показанная в Германии в марте 1943, была продолжительностью 143 минуты.
Режиссер: Йозеф фон Баки
Актеры: Ханс Альберс, Ханс Браузеветтер, Марина фон Дитмар, Эдуард фон Винтерштайн, Герман Шпильман, Хильда фон Штольц
Продолжительность: 01:50:45
Качество видео: DVDRip
Перевод: Одноголосый закадровый

Дата мировой премьеры: 5 марта 1943
Дата выхода DVD релиза: 1995
Видеокодек: Xvid
Битрейт видео: ~2410 Kbps
Размер кадра: 720 x 528
Аудио 1: MP3, 2 ch, 128 kbps (русский)
Аудио 2: MP3, 2 ch, 128 kbps (немецкий)

MediaInfo

General
Complete name :Munchhausen.1943.Ru.De.DVDRip.avi
Format : AVI
Format/Info : Audio Video Interleave
Format profile : OpenDML
File size : 2.06 GiB
Duration : 1h 50mn
Overall bit rate : 2 684 Kbps
Writing application : VirtualDubMod 1.5.4.1 (build 2178/release)
Writing library : VirtualDubMod build 2178/release
Video
ID : 0
Format : MPEG-4 Visual
Format profile : Advanced [email protected]
Format settings, BVOP : Yes
Format settings, QPel : No
Format settings, GMC : No warppoints
Format settings, Matrix : Default (H.263)
Codec ID : XVID
Codec ID/Hint : XviD
Duration : 1h 50mn
Bit rate : 2 409 Kbps
Width : 720 pixels
Height : 528 pixels
Display aspect ratio : 4:3
Frame rate : 25.000 fps
Color space : YUV
Chroma subsampling : 4:2:0
Bit depth : 8 bits
Scan type : Progressive
Compression mode : Lossy
Bits/(Pixel*Frame) : 0.254
Stream size : 1.85 GiB (90%)
Writing library : XviD 1.3.0.dev55
Audio #1
ID : 1
Format : MPEG Audio
Format version : Version 1
Format profile : Layer 3
Mode : Joint stereo
Codec ID : 55
Codec ID/Hint : MP3
Duration : 1h 50mn
Bit rate mode : Constant
Bit rate : 128 Kbps
Channel count : 2 channels
Sampling rate : 48.0 KHz
Compression mode : Lossy
Stream size : 101 MiB (5%)
Alignment : Split accross interleaves
Interleave, duration : 40 ms (1.00 video frame)
Interleave, preload duration : 500 ms
Writing library : LAME3.98r
Encoding settings : -m j -V 4 -q 2 -lowpass 17 -b 128
Audio #2
ID : 2
Format : MPEG Audio
Format version : Version 1
Format profile : Layer 3
Mode : Joint stereo
Mode extension : MS Stereo
Codec ID : 55
Codec ID/Hint : MP3
Duration : 1h 50mn
Bit rate mode : Constant
Bit rate : 128 Kbps
Channel count : 2 channels
Sampling rate : 48.0 KHz
Compression mode : Lossy
Stream size : 101 MiB (5%)
Alignment : Aligned on interleaves
Interleave, duration : 40 ms (1.00 video frame)
Interleave, preload duration : 504 ms
Writing library : LAME3.98r
Encoding settings : -m j -V 4 -q 2 -lowpass 17 -b 128
Скриншоты:          
         
Время раздачи: с 09:00 до 20:00
Вне форума [Профиль] [ЛС]
Похожие темы
Форум Тема Автор Торрент Отв. Посл. сообщение
./templates/default/images/folder_dl.gif Приключения и квесты Приключения барона Мюнхгаузена на Луне [P] [RUS / RUS] (2007) Omen
1 | 0

0 | 768

5

2015-05-27 00:02
Omen Последнее
Показать сообщения:    
Ответить на тему

Текущее время: Сегодня 09:46

Часовой пояс: GMT + 3



Вы не можете начинать темы
Вы не можете отвечать на сообщения
Вы не можете редактировать свои сообщения
Вы не можете удалять свои сообщения
Вы не можете голосовать в опросах
Вы не можете прикреплять файлы к сообщениям
Вы не можете скачивать файлы