Сегодня идет свободное скачивание без начисления Download

Шесть шведок в Альпах / Sechs Schwedinnen auf der Alm ( Пол Грау / Paul Grau ) (Комедия, Эротика 1983) DVDRip

Ответить на тему
 
Автор
Сообщение

Omen ®

Стаж: 4 года 1 месяц

Сообщений: 194382

Торрент-статистика

Пост 16-Ноя-2013 11:28

[Цитировать]

Шесть шведок в Альпах
Sechs Schwedinnen auf der Alm
- Производство: Германия (ФРГ)
Год выпуска: 1983
Жанр: Комедия, Эротика
Описание фильма:
Серия "Классика эротики". Теперь - с русским переводом!
Необремененные моральными запретами девушки резвятся в альпийской деревушке в ожидании наследства.
Знаменитая эротическая комедия о приключениях шести шведок с большим количеством обнаженного тела, одна из лидеров проката "эпохи видеосалонов". Этот "отвязный", весёлый и незатейливый фильм является одним из лучших и заметных в творчестве швейцарца Эрвина Дитриха, выступившего здесь под режиссерским псевдонимом "Пауль Грау".
Режиссер: Пауль Грау
Актеры: Анита Амстер, Марианна Обер, Вилли Бош, Албан Сирей, Эрик Фальк, Ули Фальк, Бригитта Гавас, Михаэлла Клоесс, Майк Ледерер, Петра Шротт
Продолжительность: 01:21:33
Качество видео: DVDRip
Перевод: Одноголосый закадровый

Видеокодек: DivX 5
Битрейт видео: ~2224 kbps
Размер кадра: 720 x 416
Аудиокодек: MP3, 2 ch
Битрейт аудио: 128 kbps

MediaInfo

General
Complete name Six.Swedes.In.Alps.1983.DVDRip.avi
Format : AVI
Format/Info : Audio Video Interleave
File size : 1.35 GiB
Duration : 1h 21mn
Overall bit rate : 2 362 Kbps
Writing application : VirtualDubMod 1.5.10.3 | www.virtualdub-fr.org || (build 2550/release)
Writing library : VirtualDub build 32842/release
Video
ID : 0
Format : MPEG-4 Visual
Format settings, BVOP : 1
Format settings, QPel : No
Format settings, GMC : No warppoints
Format settings, Matrix : Default (H.263)
Muxing mode : Packed bitstream
Codec ID : DX50
Codec ID/Hint : DivX 5
Duration : 1h 21mn
Bit rate : 2 224 Kbps
Width : 720 pixels
Height : 416 pixels
Display aspect ratio : 1.731
Frame rate : 25.000 fps
Color space : YUV
Chroma subsampling : 4:2:0
Bit depth : 8 bits
Scan type : Progressive
Compression mode : Lossy
Bits/(Pixel*Frame) : 0.297
Stream size : 1.27 GiB (94%)
Writing library : DivX 6.8.5 (UTC 2009-08-20)
Audio
ID : 1
Format : MPEG Audio
Format version : Version 1
Format profile : Layer 3
Mode : Joint stereo
Mode extension : MS Stereo
Codec ID : 55
Codec ID/Hint : MP3
Duration : 1h 21mn
Bit rate mode : Constant
Bit rate : 128 Kbps
Channel count : 2 channels
Sampling rate : 44.1 KHz
Compression mode : Lossy
Stream size : 74.7 MiB (5%)
Alignment : Split accross interleaves
Interleave, duration : 40 ms (1.00 video frame)
Interleave, preload duration : 500 ms
Скриншоты:
         
         
Вне форума [Профиль] [ЛС]
Похожие темы
Форум Тема Автор Торрент Отв. Посл. сообщение
./templates/default/images/folder_dl.gif Разное Венис А. Фултон | Шесть недель до OMG. Стань стройнее всех подруг (2013) [PDF] UndegraundMen
1 | 0

0 | 417

3

2013-11-05 23:01
UndegraundMen Последнее
Показать сообщения:    
Ответить на тему

Текущее время: Сегодня 17:34

Часовой пояс: GMT + 3



Вы не можете начинать темы
Вы не можете отвечать на сообщения
Вы не можете редактировать свои сообщения
Вы не можете удалять свои сообщения
Вы не можете голосовать в опросах
Вы не можете прикреплять файлы к сообщениям
Вы не можете скачивать файлы