Сегодня идет свободное скачивание без начисления Download

Прекрасные времена в Шпессарте / Herrliche Zeiten im Spessart (1967) DVDRip [H.264]

Ответить на тему
 
Автор
Сообщение

UndegraundMen ®

Стаж: 3 года 9 месяцев

Сообщений: 28329

Торрент-статистика

Пост 17-Ноя-2013 23:02

[Цитировать]

Прекрасные времена в Шпессарте / Herrliche Zeiten im Spessart (1967) DVDRip [H.264] - Год выпуска: 1967
Жанр: Фантастика, Комедия
Производство: Германия (ФРГ)/CCC Filmkunst GmbH, Independent Film
Описание фильма:
Третья часть трилогии пародийных комедий о замке Шпессарт и его обитателях - "Харчевня Шпессарт", "Привидения в замке Шпессарт". Владелица отеля Шпессарт Анна-Лиза Зандау готовится к свадьбе с американским офицером Фрэнком Грином. Сюда на ракете, она же машина времени, прилетают наши старые знакомые - привидения...
Режиссер: Курт Хоффманн
Сценарий: Гюнтер Нойманн
Продюсер: Хайнц Ангермейер, Курт Хоффманн, Артур Браунер
Актеры: : Лизелотте Пульвер, Харальд Ляйпниц, Виви Бах, Ханнелоре Эльснер, Татьяна Зайс, Иоахим Теге, Рудольф Ромберг, Ганс Рихтер, Катрин Акерманн, Клаус Шварцкопф
Продолжительность: 01:40:40
Качество видео: DVDRip
Перевод: Дублированный (Мосфильм, 1971), одноголосый закадровый

Дата мировой премьеры: 21 сентября 1967
Видеокодек: MPEG-4 AVC/H.264
Битрейт видео: ~1756 Кбит/сек
Размер кадра: 720x464
Аудио 1: Русский, МР3 1.0, 64 Кбит/сек, 44,1 kHz (Мосфильм, 1971)
Аудио 2: Русский, АС3 2.0, 128 Кбит/сек, 48 kHz

MediaInfo:

Общее
Уникальный идентификатор : 220609016502555744593466532096500288210 (0xA5F7C04754790D44AA9893770ADBCAD2)
Полное имя : H:\Downloads\Прекрасные времена в Шпессарте.mkv
Формат : Matroska
Размер файла : 1,37 Гбайт
Продолжительность : 1 ч. 40 м.
Общий поток : 1950 Кбит/сек
Дата кодирования : UTC 2013-11-08 13:35:52
Программа кодирования : mkvmerge v6.0.0 ('Coming Up For Air') built on Jan 20 2013 09:52:00
Библиотека кодирования : libebml v1.3.0 + libmatroska v1.4.0
Видео
Идентификатор : 1
Формат : AVC
Формат/Информация : Advanced Video Codec
Профиль формата : [url=mailto:[email protected]][email protected][/url]
Параметр CABAC формата : Да
Параметр ReFrames формата : 8 кадров
Идентификатор кодека : V_MPEG4/ISO/AVC
Продолжительность : 1 ч. 40 м.
Битрейт : 1756 Кбит/сек
Ширина : 720 пикс.
Высота : 464 пикс.
Соотношение сторон : 1,552
Частота кадров : 25,000 кадр/сек
Цветовое пространство : YUV
Подвыборка цветности : 4:2:0
Битовая глубина : 8 бит
Тип развёртки : Прогрессивная
Бит/(Пиксели*Кадры) : 0.210
Размер потока : 1,21 Гбайт (88%)
Заголовок : Herrliche Zeiten im Spessart
Библиотека кодирования : x264 core 125 r2208 d9d2288
Настройки программы : cabac=1 / ref=8 / deblock=1:-1:-1 / analyse=0x3:0x133 / me=umh / subme=9 / psy=1 / psy_rd=1.00:0.10 / mixed_ref=1 / me_range=32 / chroma_me=1 / trellis=2 / 8x8dct=1 / cqm=0 / deadzone=21,11 / fast_pskip=0 / chroma_qp_offset=-3 / threads=6 / lookahead_threads=1 / sliced_threads=0 / nr=0 / decimate=1 / interlaced=0 / bluray_compat=0 / constrained_intra=0 / bframes=3 / b_pyramid=2 / b_adapt=2 / b_bias=0 / direct=3 / weightb=1 / open_gop=0 / weightp=2 / keyint=250 / keyint_min=25 / scenecut=40 / intra_refresh=0 / rc_lookahead=60 / rc=2pass / mbtree=1 / bitrate=1756 / ratetol=1.0 / qcomp=0.60 / qpmin=10 / qpmax=51 / qpstep=4 / cplxblur=20.0 / qblur=0.5 / ip_ratio=1.40 / aq=1:1.00
Язык : German
Аудио #1
Идентификатор : 2
Формат : MPEG Audio
Версия формата : Version 1
Профиль формата : Layer 3
Идентификатор кодека : A_MPEG/L3
Идентификатор кодека/Подсказка : MP3
Продолжительность : 1 ч. 40 м.
Вид битрейта : Постоянный
Битрейт : 64,0 Кбит/сек
Каналы : 1 канал
Частота : 44,1 КГц
Метод сжатия : С потерями
Задержка видео : 1 с. 200 мс.
Размер потока : 46,1 Мбайт (3%)
Заголовок : Дублированный
Язык : Russian
Аудио #2
Идентификатор : 3
Формат : AC-3
Формат/Информация : Audio Coding 3
Расширение режима : CM (complete main)
Идентификатор кодека : A_AC3
Продолжительность : 1 ч. 40 м.
Вид битрейта : Постоянный
Битрейт : 128 Кбит/сек
Каналы : 2 канала
Расположение каналов : Front: L R
Частота : 48,0 КГц
Битовая глубина : 16 бит
Метод сжатия : С потерями
Размер потока : 92,2 Мбайт (7%)
Заголовок : Профессиональный одноголосый
Язык : Russian
Скриншоты:                    Время раздачи: с 13:00 до 01:00 по Москве (выходные круглосуточно), до 10 скачавших
Вне форума [Профиль] [ЛС]
Показать сообщения:    
Ответить на тему

Текущее время: Сегодня 00:20

Часовой пояс: GMT + 3



Вы не можете начинать темы
Вы не можете отвечать на сообщения
Вы не можете редактировать свои сообщения
Вы не можете удалять свои сообщения
Вы не можете голосовать в опросах
Вы не можете прикреплять файлы к сообщениям
Вы не можете скачивать файлы