Сегодня идет свободное скачивание без начисления Download

Харчевня в Шпессарте / Das Wirtshaus im Spessart (1957) DVDRip [H.264]

Ответить на тему
 
Автор
Сообщение

UndegraundMen ®

Стаж: 3 года 9 месяцев

Сообщений: 28329

Торрент-статистика

Пост 17-Ноя-2013 23:02

[Цитировать]

Харчевня в Шпессарте / Das Wirtshaus im Spessart (1957) DVDRip [H.264] - Год выпуска: 1957
Жанр: Комедия, Приключения, Мьюзикл
Производство: Германия (ФРГ)/Bavaria Film, Georg Witt-Film
Описание фильма:
Графиня Франциска с женихом едут в свой родовой замок Зандау. На ночь им приходится остановиться в харчевне в глухом месте Шпессарт. Ночью в харчевню врываются бандиты, чтобы похитить графиню и получить за нее выкуп…
Режиссер: Курт Хоффманн
Сценарий: Стэнли Шапиро, Нейт Монастер
Продюсер: Вильгельм Гауф, Luiselotte Enderle, Гюнтер Нойманн
Актеры: Лизелотте Пульвер, Карлос Томпсон, Гюнтер Людерс, Рудольф Фогель, Хуберт фон Майеринк, Херберт Хюбнер, Пауль Эссер, Ина Петерс, Кай Фишер, Вероника Фитц
Продолжительность: 01:35:55
Качество видео: DVDRip
Перевод: Многоголосый закадровый (5-ый канал)
Субтитры: Отсутствуют

Дата мировой премьеры: 15 января 1958
Видеокодек: MPEG-4 AVC/H.264
Битрейт видео: ~1852 Кбит/сек
Размер кадра: 720x432
Аудиокодек: AC3 2.0
Битрейт аудио: 192 Кбит/сек

Награды:

Каннский кинофестиваль, 1958 год
Номинации (1):
Золотая пальмовая ветвь

MediaInfo:

Общее
Уникальный идентификатор : 206387735950458360181102692776860061838 (0x9B44D5035594AD83A17E97827A72108E)
Полное имя : H:\Downloads\Харчевня в Шпессарте.mkv
Формат : Matroska
Размер файла : 1,37 Гбайт
Продолжительность : 1 ч. 35 м.
Общий поток : 2046 Кбит/сек
Дата кодирования : UTC 2013-11-16 12:39:53
Программа кодирования : mkvmerge v6.0.0 ('Coming Up For Air') built on Jan 20 2013 09:52:00
Библиотека кодирования : libebml v1.3.0 + libmatroska v1.4.0
Видео
Идентификатор : 1
Формат : AVC
Формат/Информация : Advanced Video Codec
Профиль формата : [url=mailto:[email protected]][email protected][/url]
Параметр CABAC формата : Да
Параметр ReFrames формата : 8 кадров
Идентификатор кодека : V_MPEG4/ISO/AVC
Продолжительность : 1 ч. 35 м.
Битрейт : 1852 Кбит/сек
Ширина : 720 пикс.
Высота : 432 пикс.
Соотношение сторон : 1,667
Частота кадров : 25,000 кадр/сек
Цветовое пространство : YUV
Подвыборка цветности : 4:2:0
Битовая глубина : 8 бит
Тип развёртки : Прогрессивная
Бит/(Пиксели*Кадры) : 0.238
Размер потока : 1,21 Гбайт (89%)
Заголовок : Das Wirtshaus im Spessart
Библиотека кодирования : x264 core 125 r2208 d9d2288
Настройки программы : cabac=1 / ref=8 / deblock=1:-1:-1 / analyse=0x3:0x133 / me=umh / subme=9 / psy=1 / psy_rd=1.00:0.10 / mixed_ref=1 / me_range=32 / chroma_me=1 / trellis=2 / 8x8dct=1 / cqm=0 / deadzone=21,11 / fast_pskip=0 / chroma_qp_offset=-3 / threads=6 / lookahead_threads=1 / sliced_threads=0 / nr=0 / decimate=1 / interlaced=0 / bluray_compat=0 / constrained_intra=0 / bframes=3 / b_pyramid=2 / b_adapt=2 / b_bias=0 / direct=3 / weightb=1 / open_gop=0 / weightp=2 / keyint=250 / keyint_min=25 / scenecut=40 / intra_refresh=0 / rc_lookahead=60 / rc=2pass / mbtree=1 / bitrate=1852 / ratetol=1.0 / qcomp=0.60 / qpmin=10 / qpmax=51 / qpstep=4 / cplxblur=20.0 / qblur=0.5 / ip_ratio=1.40 / aq=1:1.00
Язык : German
Аудио
Идентификатор : 2
Формат : AC-3
Формат/Информация : Audio Coding 3
Расширение режима : CM (complete main)
Идентификатор кодека : A_AC3
Продолжительность : 1 ч. 35 м.
Вид битрейта : Постоянный
Битрейт : 192 Кбит/сек
Каналы : 2 канала
Расположение каналов : Front: L R
Частота : 48,0 КГц
Битовая глубина : 16 бит
Метод сжатия : С потерями
Размер потока : 132 Мбайт (9%)
Заголовок : Многоголосый закадровый, 5-ый канал
Язык : Russian
Скриншоты:                    Время раздачи: с 13:00 до 01:00 по Москве (выходные круглосуточно), до 10 скачавших
Вне форума [Профиль] [ЛС]
Похожие темы
Форум Тема Автор Торрент Отв. Посл. сообщение
./templates/default/images/folder_dl.gif Обучающее видео Дмитрий Захарченко | Разборка, сборка, ремонт и чистка ноутбуков (2012-2014) CamRip Omen
1 | 0

0 | 44

8

2015-04-27 19:57
Omen Последнее
Показать сообщения:    
Ответить на тему

Текущее время: Сегодня 14:53

Часовой пояс: GMT + 3



Вы не можете начинать темы
Вы не можете отвечать на сообщения
Вы не можете редактировать свои сообщения
Вы не можете удалять свои сообщения
Вы не можете голосовать в опросах
Вы не можете прикреплять файлы к сообщениям
Вы не можете скачивать файлы