Сегодня идет свободное скачивание без начисления Download

Тайна Эйфелевой башни / Le Mystere De La Tour Eiffel (1927) DVDRip

Ответить на тему
 
Автор
Сообщение

UndegraundMen ®

Стаж: 3 года 9 месяцев

Сообщений: 28329

Торрент-статистика

Пост 17-Ноя-2013 23:01

[Цитировать]

Тайна Эйфелевой башни / Le Mystere De La Tour Eiffel (1927) DVDRip- Год выпуска: 1927
Жанр: Приключения, комедия, триллер
Описание фильма:
Что будет, если смешать разные жанры, взять совершенно невероятную историю и добавить немного самоиронии? В истории кино было достаточно фильмов, созданных по этому рецепту, но это один из первых. Двое очень похожих друг на друга мужчин изображают в цирке сиамских близнецов. (Тон фильму задаёт сцена, когда на глазах у публики один из "близнецов", зазевавшись, отделился от другого.) Случилось так, что одного из них разыскивают по поводу огромного наследства, но завладел им, к сожалению, его двойник. Но на наследство претендует таинственная преступная организация рыцарей Ку-Клус-Эйфеля (одно название чего стоит!), возглавляемая эдаким новым доктором Мабузе. Самозванец получает угрожающие послания и потому решает на время поменяться местами с истинным наследником...Впрочем создатели фильма и не думали относиться всерьёз к подобному сюжету. В этом смысле картина чем-то напоминает "Фантомаса" Андре Юнебеля. А ещё нам предстоит увидеть погоню по замку с нескончаемым количеством дверей, погоню на автомобилях по горному серпантину, преследование автомобиля самолётом (до знаменитой хичкоковской сцены пройдёт ещё более 30 лет)... Наконец, местом действия в кульминации станет сама Эйфелева башня. Здесь развернётся самая впечатляющая сцена - погоня за преступниками по лестницам и конструкциям знаменитой достопримечательности Парижа. Надо отметить и довольно смелое операторское решение фильма, включающее не только использование движущейся камеры, но и открытий авангардистского кино. Кроме того, в фильме на равных сосуществуют музыка и шумовые эффекты - эпоха звукового кино была уже на пороге...
Режиссер: Жюльен Дювивье
Актеры: Трамель, Реджин Буайе, Гастон Жаке, Джимми Гэллар
Продолжительность: 02:10:52
Качество видео: DVDRip
Перевод: Немой
Язык субтитров: Русские
Вид субтитров: Отдельным файлом

Видеокодек: Xvid
Битрейт видео: ~1452 kbps
Размер кадра: 576x432
Аудиокодек: MP3, 1ch
Битрейт аудио: 128 kbps

MediaInfo

Код:
Общее
Полное имя                               : D:\1UP\Le Mystere de la tour Eiffel\Le Mystere de la tour Eiffel (1927).avi
Формат                                   : AVI
Формат/Информация                        : Audio Video Interleave
Размер файла                             : 1,45 Гбайт
Продолжительность                        : 2 ч. 10 м.
Общий поток                              : 1590 Кбит/сек
Видео
Идентификатор                            : 0
Формат                                   : MPEG-4 Visual
Профиль формата                          : Advanced [email protected]
Параметр BVOP формата                    : 2
Параметр QPel формата                    : Нет
Параметр GMC формата                     : Без точки перехода
Параметр матрицы формата                 : Default (H.263)
Идентификатор кодека                     : XVID
Идентификатор кодека/Подсказка           : XviD
Продолжительность                        : 2 ч. 10 м.
Битрейт                                  : 1452 Кбит/сек
Ширина                                   : 576 пикселей
Высота                                   : 432 пикселя
Соотношение сторон                       : 4:3
Частота кадров                           : 25,000 кадров/сек
Цветовое пространство                    : YUV
Субдискретизация насыщенности            : 4:2:0
Битовая глубина                          : 8 бит
Тип развёртки                            : Прогрессивная
Метод сжатия                             : С потерями
Бит/(Пиксели*Кадры)                      : 0.233
Размер потока                            : 1,33 Гбайт (91%)
Библиотека кодирования                   : XviD 1.2.0.dev47 (UTC 2006-11-01)
Аудио
Идентификатор                            : 1
Формат                                   : MPEG Audio
Версия формата                           : Version 1
Профиль формата                          : Layer 3
Идентификатор кодека                     : 55
Идентификатор кодека/Подсказка           : MP3
Продолжительность                        : 2 ч. 10 м.
Продолжительность оригинала              : 2 ч. 10 м.
Вид битрейта                             : Постоянный
Битрейт                                  : 128 Кбит/сек
Каналы                                   : 1 канал
Частота                                  : 48,0 КГц
Метод сжатия                             : С потерями
Размер потока                            : 120 Мбайт (8%)
Выравнивание                             : Соединение по промежуткам
Продолжительность промежутка             : 40  мс. (1,00 видеокадр)
Библиотека кодирования                   : LAME3.97ЄЄЄЄЄЄЄEҐlµЩ
Общее
Полное имя                               : D:\1UP\Le Mystere de la tour Eiffel\Le Mystere de la tour Eiffel (1927).srt
Формат                                   : SubRip
Размер файла                             : 11,2 Кбайт
Текст
Формат                                   : SubRip
Метод сжатия                             : Без потерь
Скриншоты:          Время раздачи: C 8:00 до 23:00 мск. До первых пяти скачавших.
Вне форума [Профиль] [ЛС]
Похожие темы
Форум Тема Автор Торрент Отв. Посл. сообщение
./templates/default/images/folder_dl.gif Приключения и квесты Mystery Trackers: Blackrow\'s Secret Collector\'s Edition / Охотники за тайнами. Загадка рода Блэкроу. Коллекционное издание [P] [RUS / ENG] (2014) Omen
26 | 0

0 | 447

12

2015-06-06 00:09
Omen Последнее
./templates/default/images/folder_dl.gif Новинки (CamRip|TS) Тайная жизнь домашних животных / The Secret Life of Pets (Ярроу Чейни, Крис Рено) [2016 г., мультфильм, комедия, семейный, TS] DVO Theseus
1 | 0

0 | 629

35

2016-07-23 14:34
Theseus Последнее
Показать сообщения:    
Ответить на тему

Текущее время: Сегодня 01:20

Часовой пояс: GMT + 3



Вы не можете начинать темы
Вы не можете отвечать на сообщения
Вы не можете редактировать свои сообщения
Вы не можете удалять свои сообщения
Вы не можете голосовать в опросах
Вы не можете прикреплять файлы к сообщениям
Вы не можете скачивать файлы