Сегодня идет свободное скачивание без начисления Download

Бэтмен / Batman (1966) [720р] BDRip

Ответить на тему
 
Автор
Сообщение

UndegraundMen ®

Стаж: 3 года 9 месяцев

Сообщений: 28329

Торрент-статистика

Пост 18-Ноя-2013 11:02

[Цитировать]

Бэтмен / Batman (1966) BDRip [720р]- Год выпуска: 1966
Жанр: Приключения, Фантастика, Комедия, Семейный
Страна: США
Описание фильма:
Узнав, что Командор Шмидлэпп подвергся нападению на борту своей яхты, Бэтмен и Робин немедленно бросаются ему на помощь. Однако они попадают в ловушку, специально подстроенную четырьмя величайшими злодеями мира, цель которых — раз и навсегда покончить с двумя неутомимыми героями! С помощью смертоносного дегидратора-распылителя чудовищная четверка планирует покорить весь мир!
Смогут ли бесстрашные супергерои в плащах использовать свое превосходное снаряжение и сверхъестественные способности, чтобы вовремя обломать ногти — Женщине-кошке, заморозить Пингвина, обставить Джокера и сбить с толку Человека-загадку?
Режиссер: Лесли Х. Мартинсон / Leslie H. Martinson
Актеры: Адам Уэст, Берт Уорд, Ли Мэриуэзер, Сезар Ромеро, Берджесс Мередит, Фрэнк Горшин и др
Продолжительность: 01:44:56
Качество видео: BDRip [720р]
Перевод: Многоголосый закадровый
Язык субтитров: русские, украинские, английские
Вид субтитров: Вшитые

Дата мировой премьеры: 30 июля 1966
Дата выхода DVD релиза: 27 ноября 2008
Рип взят из сети и оставлен без изменений, за рип спасибо Топтыга
Видеокодек: MPEG-4 AVC/H.264
Битрейт видео: ~6 246 Kbps
Размер кадра: 1280x688
Аудио 1: AC3, 48 kHz, AC3, 6 ch, ~448 kbps (русский)
Аудио 2: DTS, 48 kHz, AC3, 6 ch, ~1536 kbps (английский)
Сэмпл: Ссылка

Медиаинфо

Format : Matroska
Format version : Version 2
File size : 6.14 GiB
Duration : 1h 44mn
Overall bit rate : 8 370 Kbps
Encoded date : UTC 2012-04-12 16:33:35
Writing application : mkvmerge v4.4.0 ('Die Wiederkehr') сборка от Oct 31 2010 21:52:48
Writing library : libebml v1.0.0 + libmatroska v1.0.0
Video
ID : 1
Format : AVC
Format/Info : Advanced Video Codec
Format profile : [url=mailto:[email protected]][email protected][/url]
Format settings, CABAC : Yes
Format settings, ReFrames : 9 frames
Codec ID : V_MPEG4/ISO/AVC
Duration : 1h 44mn
Bit rate : 6 246 Kbps
Width : 1 280 pixels
Height : 688 pixels
Display aspect ratio : 1.85:1
Frame rate : 23.976 fps
Color space : YUV
Chroma subsampling : 4:2:0
Bit depth : 8 bits
Scan type : Progressive
Bits/(Pixel*Frame) : 0.296
Stream size : 4.58 GiB (75%)
Writing library : x264 core 122 r2184 5c85e0a
Encoding settings : cabac=1 / ref=9 / deblock=1:-3:-3 / analyse=0x3:0x113 / me=tesa / subme=11 / psy=1 / psy_rd=1.00:0.00 / mixed_ref=1 / me_range=32 / chroma_me=1 / trellis=2 / 8x8dct=1 / cqm=0 / deadzone=21,11 / fast_pskip=0 / chroma_qp_offset=-4 / threads=12 / sliced_threads=0 / nr=0 / decimate=1 / interlaced=0 / bluray_compat=0 / constrained_intra=0 / bframes=12 / b_pyramid=2 / b_adapt=2 / b_bias=0 / direct=3 / weightb=1 / open_gop=0 / weightp=2 / keyint=240 / keyint_min=22 / scenecut=40 / intra_refresh=0 / rc_lookahead=40 / rc=crf / mbtree=1 / crf=18.0 / qcomp=0.60 / qpmin=0 / qpmax=69 / qpstep=4 / vbv_maxrate=50000 / vbv_bufsize=62500 / crf_max=0.0 / nal_hrd=none / ip_ratio=1.40 / aq=1:1.00
Language : English
Default : Yes
Forced : Yes
Audio #1
ID : 2
Format : AC-3
Format/Info : Audio Coding 3
Mode extension : CM (complete main)
Format settings, Endianness : Big
Codec ID : A_AC3
Duration : 1h 44mn
Bit rate mode : Constant
Bit rate : 448 Kbps
Channel(s) : 6 channels
Channel positions : Front: L C R, Side: L R, LFE
Sampling rate : 48.0 KHz
Bit depth : 16 bits
Compression mode : Lossy
Stream size : 336 MiB (5%)
Language : Russian
Default : Yes
Forced : Yes
Audio #2
ID : 3
Format : DTS
Format/Info : Digital Theater Systems
Codec ID : A_DTS
Duration : 1h 44mn
Bit rate mode : Constant
Bit rate : 1 510 Kbps
Channel(s) : 6 channels
Channel positions : Front: L C R, Side: L R, LFE
Sampling rate : 48.0 KHz
Bit depth : 24 bits
Compression mode : Lossy
Stream size : 1.11 GiB (18%)
Language : English
Default : No
Forced : No
Text #1
ID : 4
Format : UTF-8
Codec ID : S_TEXT/UTF8
Codec ID/Info : UTF-8 Plain Text
Language : Russian
Default : No
Forced : No
Text #2
ID : 5
Format : UTF-8
Codec ID : S_TEXT/UTF8
Codec ID/Info : UTF-8 Plain Text
Language : Ukrainian
Default : No
Forced : No
Text #3
ID : 6
Format : UTF-8
Codec ID : S_TEXT/UTF8
Codec ID/Info : UTF-8 Plain Text
Language : English
Default : No
Forced : No
Скриншоты:
         
         
Вне форума [Профиль] [ЛС]
Похожие темы
Форум Тема Автор Торрент Отв. Посл. сообщение
./templates/default/images/folder_dl.gif Новинки (HD|DVD|BD|WEB|TV|SAT|PDTV|-Rip) Бэтмен против Супермена: На заре справедливости / Batman v Superman: Dawn of Justice (Зак Снайдер) [2016, фантастика, фэнтези, боевик, приключения, BDRip] [1080p] [EXTENDED ULTIMATE CUT] [DUB] [iTunes] + [Sub] (Rus, Eng) Region_13
1 | 0

0 | 289

16

2016-07-05 11:36
Region_13 Последнее
Показать сообщения:    
Ответить на тему

Текущее время: Сегодня 13:12

Часовой пояс: GMT + 3



Вы не можете начинать темы
Вы не можете отвечать на сообщения
Вы не можете редактировать свои сообщения
Вы не можете удалять свои сообщения
Вы не можете голосовать в опросах
Вы не можете прикреплять файлы к сообщениям
Вы не можете скачивать файлы