Сегодня идет свободное скачивание без начисления Download

Гавайи / Hawaii (1966) DVDRip

Ответить на тему
 
Автор
Сообщение

UndegraundMen ®

Стаж: 3 года 9 месяцев

Сообщений: 28329

Торрент-статистика

Пост 19-Ноя-2013 05:30

[Цитировать]

Гавайи / Hawaii (1966) DVDRip- Русское название: Гавайи
Оригинальное название: Hawaii
Страна: США
Год выпуска: 1966
Жанр: Приключения, Драма
Описание фильма:
Экранизация третьей части одноименного романа Джеймса Миченера (James Michener), состоящего из шести частей. Великолепный актерский состав обеспечивает успех этому фильму, действие которого происходит в начале XIX века. "Гавайи" сосредоточен на критически важном периоде когда на острова пришла коммерция, коррупция и перестройка всего на западный манер. Превосходное производство, игра актеров и режиссура придают глубину и достоверность личной трагедии, вызванной столкновением двух цивилизаций.
Съемки велись в море рядом с Норвегией и в Новой Англии, Голливуде, на Гавайях и Таити. Это повлекло значительные затраты в 15 миллионов долларов, включая 600000 за права на фильм и семь лет работы. Фред Зиннеманн, первоначально настроенный продюсировать и быть режиссером, работал четыре с половиной года, после чего работу продолжил Хилл.
В 1820-х годах Эбнер Хэйл, целеустремленный и лишенный чувства юмора миссионер, женится на прекрасной Джеруше Бромли и отвозит ее на экзотические Гавайи, где ему предстоит работать. Однако разрыв между двумя культурами слишком велик, и вместо понимания приходит трагедия.
Режиссер: Джордж Рой Хилл
Сценарий: Джеймс Микенер, Далтон Трамбо, Дэниэл Тарадаш
Продюсеры: Уолтер Мириш, Льюис Дж. Рахмил
Оператор: Расселл Хэрлан
Композитор: Элмер Бернстайн
Актеры: Джули Эндрюс, Макс фон Зюдов, Ричард Харрис, Джин Хэкман, Кэрролл О’Коннор, Жослин ЛаГарде, Ману Тупу, Тед Нобрига, Элизабет Лог, Джон Каллум, Джордж Роуз, Лу Антонио, Торин Тэтчер, Майкл Константин, Малкольм Аттербери, Элизабет Коул, Джон Хардинг, Дайан Шерри, Хизер Мензис, Локелани Чикарелл, Дороти Джикинс, Бетт Мидлер
Продолжительность: 02:47:33
Качество видео: DVDRip
Перевод: Многоголосый закадровый (НТВ+)

Дата мировой премьеры: 10 октября 1966
Видеокодек: Xvid
Битрейт видео: ~1623 Kbps
Размер кадра: 704 x 312
Аудиокодек: MP3, 2 ch
Битрейт аудио: 128 Kbps

MediaInfo

General
Complete name :Hawaii.1966.DVDR.avi
Format : AVI
Format/Info : Audio Video Interleave
Format profile : OpenDML
File size : 2.07 GiB
Duration : 2h 47mn
Overall bit rate : 1 763 Kbps
Writing application : VirtualDubMod 1.5.4.1 (build 2178/release)
Writing library : VirtualDub build 32842/release
Video
ID : 0
Format : MPEG-4 Visual
Format profile : Advanced [email protected]
Format settings, BVOP : 2
Format settings, QPel : No
Format settings, GMC : No warppoints
Format settings, Matrix : Default (H.263)
Muxing mode : Packed bitstream
Codec ID : XVID
Codec ID/Hint : XviD
Duration : 2h 47mn
Bit rate : 1 623 Kbps
Width : 704 pixels
Height : 312 pixels
Display aspect ratio : 2.25:1
Frame rate : 23.976 fps
Color space : YUV
Chroma subsampling : 4:2:0
Bit depth : 8 bits
Scan type : Progressive
Compression mode : Lossy
Bits/(Pixel*Frame) : 0.308
Stream size : 1.90 GiB (92%)
Writing library : XviD 1.3.0.dev55
Audio
ID : 1
Format : MPEG Audio
Format version : Version 1
Format profile : Layer 3
Mode : Joint stereo
Mode extension : MS Stereo
Codec ID : 55
Codec ID/Hint : MP3
Duration : 2h 47mn
Bit rate mode : Constant
Bit rate : 128 Kbps
Channel count : 2 channels
Sampling rate : 48.0 KHz
Compression mode : Lossy
Stream size : 154 MiB (7%)
Alignment : Aligned on interleaves
Interleave, duration : 42 ms (1.00 video frame)
Interleave, preload duration : 504 ms
Writing library : LAME3.98r
Encoding settings : -m j -V 4 -q 2 -lowpass 17 -b 128

Награды и номинации

7 номинаций на "Оскар-1967"
- лучшая женская роль второго плана (Жослин Лагард)
- лучший оператор (Расселл Харлэн)
- лучшие костюмы (Дороти Джикинс)
- лучшая музыка (Элмер Бернстайн)
- лучшая песня ("My Wishing Doll" Мэк Дэвид, Элмер Бернстайн)
- лучшие спецэффекты (Linwood G. Dunn)
- лучший звук (Gordon Sawyer)
2 "Золотых глобуса"
- музыка и актриса второго плана (Жослин Лагард)
- номинация за лучшего актёра (драма) - фон Зюдов
Скриншоты:          
         
Время раздачи: с 09:00 до 20:00
Вне форума [Профиль] [ЛС]
Показать сообщения:    
Ответить на тему

Текущее время: Сегодня 17:33

Часовой пояс: GMT + 3



Вы не можете начинать темы
Вы не можете отвечать на сообщения
Вы не можете редактировать свои сообщения
Вы не можете удалять свои сообщения
Вы не можете голосовать в опросах
Вы не можете прикреплять файлы к сообщениям
Вы не можете скачивать файлы