Сегодня идет свободное скачивание без начисления Download

Время убивать / A Time to Kill (Джоэл Шумахер / Joel Schumacher) [1996 г., Триллер, криминал, BDRip] Mvo (Twister) + Original + Subs (Rus, Eng)

Ответить на тему
 
Автор
Сообщение

Omen ®

Стаж: 4 года 1 месяц

Сообщений: 194394

Торрент-статистика

Пост 19-Ноя-2013 21:11

[Цитировать]

Время убивать / A Time to Kill-Релиз от HQCLUB
Год выпуска: 1995
Страна: США / Regency Enterprises
Жанр: Триллер, криминал
Продолжительность: 02:29:29
Перевод: Профессиональный (многоголосый, закадровый) Twister (Спасибо Gahan Dave)
+ Оригинальная звуковая дорожка
Cубтитры: Русские, английские (внешние srt*)-Режиссер: Джоэл Шумахер / Joel Schumacher
В ролях: Сандра Буллок / Sandra Bullock, Чарлз С. Даттон / Charles S. Dutton, Сэмюэл Л. Джексон / Samuel L. Jackson, Мэттью МакКонахи / Matthew McConaughey, Энтони Хилд / Anthony Heald, Никки Кэтт / Nicky Katt, Бет Грэнт / Beth Grant, Оливер Плэтт / Oliver Platt, Джонатан Хэдари / Jonathan Hadary, Крис Купер / Chris Cooper, Пэтрик Макгуэн / Patrick McGoohan, Кертвуд Смит / Kurtwood Smith, Доналд Сазерлэнд / Donald Sutherland, Эшли Джадд / Ashley Judd, Бренда Фрикер / Brenda Fricker, Кевин Спэйси / Kevin Spacey
Описание: Экранизация романа Джона Гришэма.
В штате Миссиссиппи молодые белые подонки (во главе с Кифером Сазерлэндом) изнасиловали и бросили, сочтя мертвой, несовершеннолетнюю негритянскую девочку. Ее отец (Джексон), не надеясь на эффективность белого правосудия вооружился автоматом и застрелил негодяев, серьезно ранив охранника. За его защиту взялся молодой юрист (МакКонахи в этой роли очень похож на молодого Пола Ньюмана), несмотря на то, что и дома, и в обществе у него возникло много серьезных проблем. Неожиданно к нему на помощь приходит чрезвычайно умная студентка юрфака (Сандра Буллок), оказывая действительно бесценную поддержку, определившую во многом успех его защиты.
Хорошо сыгранная, сильная судебная драма на тему (которая, возможно, уже набила оскомину у российского зрителя) расовой несправедливости в южных штатах Америки. Доналд Сазерлэнд (отец Кифера в жизни) — в роли отстраненного от работы юриста-алкоголика, вернувшегося к работе и жизни, благодаря участию в защите правого дела..-User Rating: 8.084/10 (2,483 cotes)
Imdb: 7.1/10 (37,818 votes)
Релиз:
Качество: BDRip (источник: / Blu-ray Remux /1080p)
Формат: AVI
Видео кодек: XviD, build 50 codec
Аудио кодек: AC3
Видео: 720x304 (2.37:1), 23.976 fps, XviD build 50 ~ 1944 kbps avg, 0.37 bit/pixel
Аудио: 48 kHz, AC3 Dolby Digital, 3/2 (L,C,R,l,r) + LFE ch, ~384.00 kbps avg Mvo
Аудио: 48 kHz, AC3 Dolby Digital, 3/2 (L,C,R,l,r) + LFE ch, ~448.00 kbps avg Eng

Награды и номинации

Золотой глобус, 1997 год
Номинации (1):
• Лучшая мужская роль второго плана (Сэмюэл Л. Джексон)
Премия канала «MTV», 1997 год
Победитель (1):
• Прорыв года (Мэттью МакКонахи)
Номинации (2):
• Лучшая женская роль (Сандра Буллок)
• Лучший злодей (Кифер Сазерленд)
Золотая малина, 1997 год
Номинации (1):
• Худший блокбастер (фильм, собравший более 100 млн. долларов)
-

Знаете ли вы, что...

• На роль Джейка Бригенса планировались Вэл Килмер, Джон Кьюсак, Роберт Дауни-младший, Эйдан Куин и Брэд Питт. Рассматривались также кандидатуры Вуди Харрельсона и Кевина Костнера. Последний был очень близок к утверждению, но против этого выступил Джон Гришэм — сопродюсер и автор книги, на которой основан сюжет фильма — опасавшийся, что Костнер «подомнёт под себя» всю съёмочную группу и будет влиять на сюжет фильма. Для Гришэма же это было неприемлемо. «Время убивать» был первым его опубликованным романом и автор неоднократно признавался, что считает этот роман лучшим из всех своих произведений. Именно стремление сделать его экранизацию максимально близкой к роману и вынудило Гришэма стать сопродюсером этого фильма. И именно это обстоятельство поставило крест на попытке Кевина Костнера сыграть в этом фильме главную роль. Опасения Гришэма оказались столь сильны, что на главную роль был утверждён Мэттью Макконэхи, к этому моменту уже утверждённый на роль ку-клукс-клановца Фредди Ли Кобба, брата одного из убитых Карлом Ли Хейли (это роль в результате сыграл Кифер Сазерленд).

MediaInfo:

Общее
Полное имя : C:\Justlan\Время убивать\Vremya ubivatj\Vremya ubivatj.avi
Формат : AVI
Формат/Информация : Audio Video Interleave
Профиль формата : OpenDML
Размер файла : 2,91 Гбайт
Продолжительность : 2 ч. 29 м.
Общий поток : 2783 Кбит/сек
Программа кодирования : VirtualDubMod 1.5.10.2 (build 2542/release)
Видео
Идентификатор : 0
Формат : MPEG-4 Visual
Профиль формата : Advanced [email protected]
Параметр BVOP формата : 1
Параметр QPel формата : Нет
Параметр GMC формата : Без точки перехода
Параметр матрицы формата : Выборочная
Идентификатор кодека : XVID
Идентификатор кодека/Подсказка : XviD
Продолжительность : 2 ч. 29 м.
Битрейт : 1936 Кбит/сек
Ширина : 720 пикселей
Высота : 304 пикселя
Соотношение сторон : 2,35:1
Частота кадров : 23,976 кадра/сек
Цветовое пространство : YUV
Субдискретизация насыщенности : 4:2:0
Битовая глубина : 8 бит
Тип развёртки : Прогрессивная
Метод сжатия : С потерями
Бит/(Пиксели*Кадры) : 0.369
Размер потока : 2,02 Гбайт (70%)
Библиотека кодирования : XviD 1.2.1 (UTC 2008-12-04)
Аудио #1
Идентификатор : 1
Формат : AC-3
Формат/Информация : Audio Coding 3
Расширение режима : CM (complete main)
Идентификатор кодека : 2000
Продолжительность : 2 ч. 29 м.
Вид битрейта : Постоянный
Битрейт : 384 Кбит/сек
Каналы : 6 каналов
Расположение каналов : Front: L C R, Side: L R, LFE
Частота : 48,0 КГц
Битовая глубина : 16 бит
Метод сжатия : С потерями
Размер потока : 411 Мбайт (14%)
Выравнивание : Разделение по промежуткам
Продолжительность промежутка : 42 мс. (1,00 видеокадр)
Время предзагрузки промежутка : 500 мс.
Аудио #2
Идентификатор : 2
Формат : AC-3
Формат/Информация : Audio Coding 3
Расширение режима : CM (complete main)
Идентификатор кодека : 2000
Продолжительность : 2 ч. 29 м.
Вид битрейта : Постоянный
Битрейт : 448 Кбит/сек
Каналы : 6 каналов
Расположение каналов : Front: L C R, Side: L R, LFE
Частота : 48,0 КГц
Битовая глубина : 16 бит
Метод сжатия : С потерями
Размер потока : 479 Мбайт (16%)
Выравнивание : Разделение по промежуткам
Продолжительность промежутка : 42 мс. (1,00 видеокадр)
Время предзагрузки промежутка : 500 мс.
Скриншоты:                    Время раздачи: Круглосуточно до 10 скачавших
Вне форума [Профиль] [ЛС]
Похожие темы
Форум Тема Автор Торрент Отв. Посл. сообщение
./templates/default/images/folder_dl.gif Художественная литература Гарсиа Маркес Габриель - Любовь во время чумы [Князев Игорь, 2011 г., 192 kbps, MP3] Omen
1 | 0

0 | 1048

8

2011-10-10 19:53
Omen Последнее
./templates/default/images/folder_dl.gif Фантастика, фэнтези, ужасы, мистика Асачёв Тарас - Не время для Реала 1, Уже не игра [Геннадий Коршунов (ЛИ), 2016 г., 192 kbps, MP3] Omen
1 | 0

0 | 112

3

2016-07-14 01:00
Omen Последнее
Показать сообщения:    
Ответить на тему

Текущее время: Сегодня 22:50

Часовой пояс: GMT + 3



Вы не можете начинать темы
Вы не можете отвечать на сообщения
Вы не можете редактировать свои сообщения
Вы не можете удалять свои сообщения
Вы не можете голосовать в опросах
Вы не можете прикреплять файлы к сообщениям
Вы не можете скачивать файлы