Сегодня идет свободное скачивание без начисления Download

Седьмое путешествие Синдбада / The 7th Voyage of Sinbad (1958) BDRemux [1080p]

Ответить на тему
 
Автор
Сообщение

UndegraundMen ®

Стаж: 3 года 9 месяцев

Сообщений: 28329

Торрент-статистика

Пост 23-Ноя-2013 11:53

[Цитировать]

Седьмое путешествие Синдбада / The 7th Voyage of Sinbad (1958) BDRemux- Год выпуска: 1958
Жанр: Фэнтези, Приключения
Описание фильма:
Синдбад, желая избавить свою невесту от колдовских чар злого колдуна Сакуры, отправляется к волшебному острову, где его и его друзей поджидает множество опасностей и испытаний.
Синдбад должен победить мерзкого одноглазого циклопа и огромного дракона, сразиться с черным чародеем - и, в конце концов, одержав победу над силами зла и освободив от заклятья любимую, отправиться вперед, навстречу новым подвигам
Режиссер: Натан Джуран
Актеры: Кервин Метьюз, Катрин Грант, Ричард Айер, Торин Тетчер, Алек Манго, Данни Грин-

Дата мировой премьеры: 5 декабря 1958-Продолжительность: 01:28:09
Качество видео: BDRemux
Перевод: Дублированный, многоголосый закадровый, одноголосый закадровый
Контейнер: MKV
Видео: MPEG-4 AVC/H.264, 1920x1080, ~ 28300 kbps, 23.976 fps
Аудио 1: Русский AC3 2.0, 48 kHz, 224 kbps - Дубляж
Аудио 2: Русский AC3 2.0, 48 kHz, 448 kbps - Многоголосый закадровый
Аудио 3: Русский AC3 2.0, 48 kHz, 192 kbps - Одноголосый закадровый (Ю.Живов)
Аудио 4: Украинский AC3 2.0, 192 kbps - Двуголосый закадровый (TakTrebaProdakshn)
Аудио 5: Английский DTS 5.1, 48 kHz, 24 bit, 960 kbps

MediaInfo

The.7th.Voyage.of.Sinbad.1958.BDRemux.mkv
Format : Matroska
Format version : Version 2
File size : 19.1 GiB
Duration : 1h 28mn
Overall bit rate mode : Variable
Overall bit rate : 31.0 Mbps
Movie name : The 7th Voyage of Sinbad.(1958).BDRemux
Encoded date : UTC 2013-07-15 08:33:54
Writing application : mkvmerge v5.7.0 ('The Whirlwind') built on Jul 8 2012 20:08:51
Writing library : libebml v1.2.3 + libmatroska v1.3.0
Video
ID : 1
Format : AVC
Format/Info : Advanced Video Codec
Format profile : [url=mailto:[email protected]][email protected][/url]
Format settings, CABAC : Yes
Format settings, ReFrames : 2 frames
Codec ID : V_MPEG4/ISO/AVC
Duration : 1h 28mn
Bit rate mode : Variable
Bit rate : 28.3 Mbps
Width : 1 920 pixels
Height : 1 080 pixels
Display aspect ratio : 16:9
Frame rate mode : Constant
Frame rate : 23.976 fps
Color space : YUV
Chroma subsampling : 4:2:0
Bit depth : 8 bits
Scan type : Progressive
Bits/(Pixel*Frame) : 0.570
Stream size : 17.5 GiB (92%)
Title : The 7th Voyage of Sinbad.(1958).BDRemux
Language : English
Default : Yes
Forced : No
Audio #1
ID : 2
Format : AC-3
Format/Info : Audio Coding 3
Mode extension : CM (complete main)
Format settings, Endianness : Big
Codec ID : A_AC3
Duration : 1h 28mn
Bit rate mode : Constant
Bit rate : 224 Kbps
Channel(s) : 2 channels
Channel positions : Front: L R
Sampling rate : 48.0 KHz
Bit depth : 16 bits
Compression mode : Lossy
Stream size : 141 MiB (1%)
Title : AC3 2.0 @ 224 kbps - Dub
Language : Russian
Default : Yes
Forced : Yes
Audio #2
ID : 3
Format : AC-3
Format/Info : Audio Coding 3
Mode extension : CM (complete main)
Format settings, Endianness : Big
Codec ID : A_AC3
Duration : 1h 28mn
Bit rate mode : Constant
Bit rate : 448 Kbps
Channel(s) : 2 channels
Channel positions : Front: L R
Sampling rate : 48.0 KHz
Bit depth : 16 bits
Compression mode : Lossy
Stream size : 282 MiB (1%)
Title : AC3 2.0 @ 448 kbps - MVO
Language : Russian
Default : No
Forced : No
Audio #3
ID : 4
Format : AC-3
Format/Info : Audio Coding 3
Mode extension : CM (complete main)
Format settings, Endianness : Big
Codec ID : A_AC3
Duration : 1h 28mn
Bit rate mode : Constant
Bit rate : 192 Kbps
Channel(s) : 2 channels
Channel positions : Front: L R
Sampling rate : 48.0 KHz
Bit depth : 16 bits
Compression mode : Lossy
Stream size : 121 MiB (1%)
Title : AC3 2.0 @ 448 kbps - AVO, Zhivov
Language : Russian
Default : No
Forced : No
Audio #4
ID : 5
Format : AC-3
Format/Info : Audio Coding 3
Mode extension : CM (complete main)
Format settings, Endianness : Big
Codec ID : A_AC3
Duration : 1h 28mn
Bit rate mode : Constant
Bit rate : 192 Kbps
Channel(s) : 2 channels
Channel positions : Front: L R
Sampling rate : 48.0 KHz
Bit depth : 16 bits
Compression mode : Lossy
Stream size : 121 MiB (1%)
Title : AC3 2.0 @ 192 kbps - DVO, TakTrebaProdakshn
Language : Ukrainian
Default : No
Forced : No
Audio #5
ID : 6
Format : DTS
Format/Info : Digital Theater Systems
Mode : 16
Format settings, Endianness : Big
Codec ID : A_DTS
Duration : 1h 28mn
Bit rate mode : Constant
Bit rate : 960 Kbps
Channel(s) : 6 channels
Channel positions : Front: L C R, Side: L R, LFE
Sampling rate : 48.0 KHz
Bit depth : 24 bits
Compression mode : Lossy
Stream size : 605 MiB (3%)
Title : DTS 5.1 @ 960 kbps - Original
Language : English
Default : No
Forced : No
Скриншоты:            Время раздачи: c 09:00 до 01:00
Вне форума [Профиль] [ЛС]
Показать сообщения:    
Ответить на тему

Текущее время: Сегодня 10:56

Часовой пояс: GMT + 3



Вы не можете начинать темы
Вы не можете отвечать на сообщения
Вы не можете редактировать свои сообщения
Вы не можете удалять свои сообщения
Вы не можете голосовать в опросах
Вы не можете прикреплять файлы к сообщениям
Вы не можете скачивать файлы