Сегодня идет свободное скачивание без начисления Download

Челюсти / Jaws (1975) BDRemux [1080p]

Ответить на тему
 
Автор
Сообщение

UndegraundMen ®

Стаж: 3 года 9 месяцев

Сообщений: 28329

Торрент-статистика

Пост 23-Ноя-2013 23:26

[Цитировать]

Челюсти / Jaws (1975) BDRemux- Год выпуска: 1975
Жанр: Ужасы, Триллер, Приключения
Описание фильма:
Действие картины протекает в течение пяти дней - на острове Э́мити, где расположен небольшой курортный городок. В этом тихом и солнечном месте произошли ужасные трагические события, начало которым было положено ранним утром, когда шеф местной полиции Мартин Броуди и его помощник находят на берегу остатки тела девушки. Она стала первой жертвой огромной большой белой акулы, которая появилась у берегов Эмити...
Режиссер: Стивен Спилберг
Актеры: Рой Шайдер, Роберт Шоу, Ричард Дрейфусс, Лоррэйн Гари, Мюррэй Хэмилтон, Карл Готтлиб, Джефри Крамер, Сьюзэн Бэклайни, Джонатан Филли, Крис Ребелл-

Обладатель 3 премий «ОСКАР» за Лучший звук, Лучший монтаж и Лучший оригинальный саундтрек. Номинация на Лучший фильм, 1976г.-Продолжительность: 02:04:01
Качество видео: BDRemux
Перевод: Многоголосый закадровый, одноголосый закадровый
Контейнер: MKV
Видео: MPEG-4 AVC/H.264, 1920x1080, ~ 26800 kbps, 23.976 fps
Аудио 1: Русский AC3 5.1, 48 kHz, 448 kbps - Многоголосый закадровый (Blu-Ray)
Аудио 2: Русский DTS 5.1, 48 kHz, 24 bit, 1509 kbps - Одноголосый закадровый (А.Гаврилов)
Аудио 3: Русский DTS 5.1, 48 kHz, 24 bit, 1509 kbps - Одноголосый закадровый (Ю.Живов)
Аудио 4: Украинский AC3 2.0, 48 kHz, 192 kbps - Двуголосый закадровый
Аудио 5: Английский DTS 5.1, 48 kHz, 24 bit, 1509 kbps
Субтитры: Русские (forced), Русские (full), Английские

MediaInfo

Jaws.1975.BDRemux.mkv
Format : Matroska
Format version : Version 2
File size : 28.3 GiB
Duration : 2h 4mn
Overall bit rate mode : Variable
Overall bit rate : 32.7 Mbps
Movie name : Jaws.(1975).BDRemux
Encoded date : UTC 2013-11-23 11:37:37
Writing application : mkvmerge v5.7.0 ('The Whirlwind') built on Jul 8 2012 20:08:51
Writing library : libebml v1.2.3 + libmatroska v1.3.0
Video
ID : 1
Format : AVC
Format/Info : Advanced Video Codec
Format profile : [url=mailto:[email protected]][email protected][/url]
Format settings, CABAC : Yes
Format settings, ReFrames : 4 frames
Codec ID : V_MPEG4/ISO/AVC
Duration : 2h 4mn
Bit rate mode : Variable
Bit rate : 26.8 Mbps
Maximum bit rate : 33.0 Mbps
Width : 1 920 pixels
Height : 1 080 pixels
Display aspect ratio : 16:9
Frame rate mode : Constant
Frame rate : 23.976 fps
Color space : YUV
Chroma subsampling : 4:2:0
Bit depth : 8 bits
Scan type : Progressive
Bits/(Pixel*Frame) : 0.540
Stream size : 23.2 GiB (82%)
Title : Jaws.(1975).BDRemux
Language : English
Default : Yes
Forced : No
Audio #1
ID : 2
Format : AC-3
Format/Info : Audio Coding 3
Mode extension : CM (complete main)
Format settings, Endianness : Big
Codec ID : A_AC3
Duration : 2h 4mn
Bit rate mode : Constant
Bit rate : 448 Kbps
Channel(s) : 6 channels
Channel positions : Front: L C R, Side: L R, LFE
Sampling rate : 48.0 KHz
Bit depth : 16 bits
Compression mode : Lossy
Stream size : 397 MiB (1%)
Title : AC3 5.1 @ 448 kbpc - MVO, Blu-Ray
Language : Russian
Default : Yes
Forced : No
Audio #2
ID : 3
Format : DTS
Format/Info : Digital Theater Systems
Mode : 16
Format settings, Endianness : Big
Codec ID : A_DTS
Duration : 2h 4mn
Bit rate mode : Constant
Bit rate : 1 509 Kbps
Channel(s) : 6 channels
Channel positions : Front: L C R, Side: L R, LFE
Sampling rate : 48.0 KHz
Bit depth : 24 bits
Compression mode : Lossy
Stream size : 1.31 GiB (5%)
Title : DTS 5.1 @ 1509 kbpc - AVO, А.Гаврилов
Language : Russian
Default : No
Forced : No
Audio #3
ID : 4
Format : DTS
Format/Info : Digital Theater Systems
Mode : 16
Format settings, Endianness : Big
Codec ID : A_DTS
Duration : 2h 4mn
Bit rate mode : Constant
Bit rate : 1 509 Kbps
Channel(s) : 6 channels
Channel positions : Front: L C R, Side: L R, LFE
Sampling rate : 48.0 KHz
Bit depth : 24 bits
Compression mode : Lossy
Stream size : 1.31 GiB (5%)
Title : DTS 5.1 @ 1509 kbpc - AVO, Ю.Живов (поздний)
Language : Russian
Default : No
Forced : No
Audio #4
ID : 5
Format : AC-3
Format/Info : Audio Coding 3
Mode extension : CM (complete main)
Format settings, Endianness : Big
Codec ID : A_AC3
Duration : 2h 4mn
Bit rate mode : Constant
Bit rate : 192 Kbps
Channel(s) : 2 channels
Channel positions : Front: L R
Sampling rate : 48.0 KHz
Bit depth : 16 bits
Compression mode : Lossy
Stream size : 170 MiB (1%)
Title : AC3 2.0 @ 192 kbpc - DVO
Language : Ukrainian
Default : No
Forced : No
Audio #5
ID : 6
Format : DTS
Format/Info : Digital Theater Systems
Mode : 16
Format settings, Endianness : Big
Codec ID : A_DTS
Duration : 2h 4mn
Bit rate mode : Constant
Bit rate : 1 509 Kbps
Channel(s) : 6 channels
Channel positions : Front: L C R, Side: L R, LFE
Sampling rate : 48.0 KHz
Bit depth : 24 bits
Compression mode : Lossy
Stream size : 1.31 GiB (5%)
Title : DTS 5.1 @ 1509 kbpc - Original
Language : English
Default : No
Forced : No
Text #1
ID : 7
Format : UTF-8
Codec ID : S_TEXT/UTF8
Codec ID/Info : UTF-8 Plain Text
Title : Forced
Language : Russian
Default : Yes
Forced : Yes
Text #2
ID : 8
Format : UTF-8
Codec ID : S_TEXT/UTF8
Codec ID/Info : UTF-8 Plain Text
Title : Full
Language : Russian
Default : No
Forced : No
Text #3
ID : 9
Format : UTF-8
Codec ID : S_TEXT/UTF8
Codec ID/Info : UTF-8 Plain Text
Title : Full
Language : English
Default : No
Forced : No
Menu
00:00:00.000 : en:
00:01:48.899 : en:
00:07:33.786 : en:
00:11:20.179 : en:
00:13:35.356 : en:
00:18:11.590 : en:
00:24:30.260 : en:
00:27:41.242 : en:
00:32:46.672 : en:
00:45:18.006 : en:
00:53:31.041 : en:
01:01:28.643 : en:
01:06:11.801 : en:
01:21:03.191 : en:
01:26:24.970 : en:
01:36:24.236 : en:
01:50:00.802 : en:
01:56:47.166 : en:
01:57:52.356 : en:
02:02:35.639 : en:
Скриншоты:            Время раздачи: c 09:00 до 01:00
Вне форума [Профиль] [ЛС]
Показать сообщения:    
Ответить на тему

Текущее время: Сегодня 00:21

Часовой пояс: GMT + 3



Вы не можете начинать темы
Вы не можете отвечать на сообщения
Вы не можете редактировать свои сообщения
Вы не можете удалять свои сообщения
Вы не можете голосовать в опросах
Вы не можете прикреплять файлы к сообщениям
Вы не можете скачивать файлы