Сегодня идет свободное скачивание без начисления Download

Закон выжившего / La loi du survivant (1967 )DVDRip

Ответить на тему
 
Автор
Сообщение

UndegraundMen ®

Стаж: 3 года 9 месяцев

Сообщений: 28329

Торрент-статистика

Пост 24-Ноя-2013 23:25

[Цитировать]

Закон выжившего / La loi du survivant (1967 )DVDRip
Год выпуска: 1967
Страна Франция
Жанр: Драма
Режиссер: Хосе Джованни / Jose Giovanni
В ролях: Мишель Константен, Александра Стюарт, Роже Блен, Эдвин Моатти, Альбер Даньян, Жан Франваль,Фредерик Ламбрэ, Даниэль Мусманн, Кристиан Барбье
Описание фильма : Герой фильма "Калмык" приезжает на Корсику, навестить могилу друга. Случайная встреча с женщиной приводит к непредсказуемым последствиям.

Дата мировой премьеры: 19 апреля 1967
Перевод:(Озвучка) Одноголосый закадровый Urasiko
Перевод с французского Алексея Королева.Сэмпл:
Cубтитры: нет
За релиз спасибо Urasiko
Продолжительность: 01:36:37
Качество видео: DVDRip
Видео: XviD build 50, 720x288 (2.50:1), 25 fps, 1792 kbps
Аудио: AC3 Dolby Digital, 2/0 (L,R) ch, 192 kbps

Mediainfo

Общее
Полное имя : F:\KINO\La loi du survivant RUS.avi
Формат : AVI
Формат/Информация : Audio Video Interleave
Размер файла : 1,35 Гбайт
Продолжительность : 1 ч. 36 м.
Общий поток : 1994 Кбит/сек
Программа кодирования : VirtualDubModRus 1.5.10.2 (build 2542/release)
Библиотека кодирования : VirtualDubMod build 2542/release
Видео
Идентификатор : 0
Формат : MPEG-4 Visual
Профиль формата : Advanced [email protected]
Параметр BVOP формата : Нет
Параметр QPel формата : Нет
Параметр GMC формата : Без точки перехода
Параметр матрицы формата : Выборочная
Идентификатор кодека : XVID
Идентификатор кодека/Подсказка : XviD
Продолжительность : 1 ч. 36 м.
Битрейт : 1792 Кбит/сек
Ширина : 720 пикс.
Высота : 288 пикс.
Соотношение сторон : 2,500
Частота кадров : 25,000 кадр/сек
Цветовое пространство : YUV
Подвыборка цветности : 4:2:0
Битовая глубина : 8 бит
Тип развёртки : Прогрессивная
Метод сжатия : С потерями
Бит/(Пиксели*Кадры) : 0.346
Размер потока : 1,21 Гбайт (90%)
Библиотека кодирования : XviD 1.2.1 (UTC 2008-12-04)
Аудио
Идентификатор : 1
Формат : AC-3
Формат/Информация : Audio Coding 3
Расширение режима : CM (complete main)
Идентификатор кодека : 2000
Продолжительность : 1 ч. 36 м.
Вид битрейта : Постоянный
Битрейт : 192 Кбит/сек
Каналы : 2 канала
Расположение каналов : Front: L R
Частота : 48,0 КГц
Битовая глубина : 16 бит
Метод сжатия : С потерями
Размер потока : 133 Мбайт (10%)
Выравнивание : Разделение по промежуткам
Продолжительность промежутка : 40 мс. (1,00 видеокадр)
Время предзагрузки промежутка : 500 ms
Скриншоты
         
Время раздачи:7\24
Вне форума [Профиль] [ЛС]
Похожие темы
Форум Тема Автор Торрент Отв. Посл. сообщение
./templates/default/images/folder_dl.gif Учебники, справочники, энциклопедии и словари Р. Дикерсон и др. | Основные законы химии. Том 1-2 [2 книги] (1982) [PDF] [email protected]
2 | 0

0 | 1572

3

2016-11-27 14:32
[email protected] Последнее
Показать сообщения:    
Ответить на тему

Текущее время: Сегодня 13:12

Часовой пояс: GMT + 3



Вы не можете начинать темы
Вы не можете отвечать на сообщения
Вы не можете редактировать свои сообщения
Вы не можете удалять свои сообщения
Вы не можете голосовать в опросах
Вы не можете прикреплять файлы к сообщениям
Вы не можете скачивать файлы