Сегодня идет свободное скачивание без начисления Download

Вторая истина / Seconde Verite,La(1966 г.) VHSRip

Ответить на тему
 
Автор
Сообщение

UndegraundMen ®

Стаж: 3 года 9 месяцев

Сообщений: 28329

Торрент-статистика

Пост 25-Ноя-2013 11:00

[Цитировать]

Вторая истина / Seconde Verite,La (1966 ) VHSRip
Год выпуска: 1966
Страна: Франция
Жанр: триллер
Режиссер: Кристиан-Жак /Christian-Jaque/
В роляхМишель Мерсье /Michèle Mercier/,Робер Оссейн/Robert Hossein/,Жан-Клод Роллан /Bernard Tiphaine/,Паскаль де Боссон /Pascale de Boysson/,Жак Кастело /Jacques Castelot/ ,Жан-Пьер Даррас /Jean-Pierre Darras /,Малка Рибовска /Malka Ribowska/ и др.
Описание фильма:
Известный адвокат Пьер Монто (Робер Оссейн) обвиняется в убийстве бывшего возлюбленного своей подруги. Суд оправдывает адвоката за недостаточностью улик. Все довольны таким исходом дела, в том числе и Натали(Мишель Мерьсе). Но адвокат знает,что он не убивал. И начинает собственное расследование, наперекор советам друзей. Коллегия адвокатов в возмущении и хочет лишить Монто адвокатского статуса. Но герой Оссейна неумолим! Он хочет добраться до истины. Только нужна она кому нибудь,кроме нашего героя? Да и его адвокату тоже?

Перевод: Профессиональный (полное дублирование) Советский дубляж
Лидер проката в СССР 1975 г. -27.4 млн зрителей.
Русские субтитры: нет
Продолжительность: 01:26:38
Качество: VHSRip
Видео: 544x240 (2.27:1), 25 fps, XviD ~965 kbps
Аудио : 48 kHz, MPEG Layer 3, 2 ch, ~128.00 kbps

Mediainfo

Общее
Полное имя : F:\KINO\Классика\vtoraja_istina_1966.avi
Формат : AVI
Формат/Информация : Audio Video Interleave
Размер файла : 684 Мбайт
Продолжительность : 1 ч. 26 м.
Общий поток : 1103 Кбит/сек
Библиотека кодирования : Boilsoft Joiner build 2411/release
Видео
Идентификатор : 0
Формат : MPEG-4 Visual
Профиль формата : Advanced [email protected]
Параметр BVOP формата : 1
Параметр QPel формата : Нет
Параметр GMC формата : Без точки перехода
Параметр матрицы формата : Выборочная
Идентификатор кодека : XVID
Идентификатор кодека/Подсказка : XviD
Продолжительность : 1 ч. 26 м.
Битрейт : 965 Кбит/сек
Ширина : 544 пикс.
Высота : 240 пикс.
Соотношение сторон : 2,25:1
Частота кадров : 25,000 кадр/сек
Цветовое пространство : YUV
Подвыборка цветности : 4:2:0
Битовая глубина : 8 бит
Тип развёртки : Прогрессивная
Метод сжатия : С потерями
Бит/(Пиксели*Кадры) : 0.296
Размер потока : 598 Мбайт (88%)
Библиотека кодирования : XviD 1.0.3 (UTC 2004-12-20)
Аудио
Идентификатор : 1
Формат : MPEG Audio
Версия формата : Version 1
Профиль формата : Layer 3
Режим : Joint stereo
Идентификатор кодека : 55
Идентификатор кодека/Подсказка : MP3
Продолжительность : 1 ч. 26 м.
Вид битрейта : Постоянный
Битрейт : 128 Кбит/сек
Каналы : 2 канала
Частота : 48,0 КГц
Метод сжатия : С потерями
Задержка видео : 48 мс.
Размер потока : 79,3 Мбайт (12%)
Выравнивание : Соединение по промежуткам
Продолжительность промежутка : 40 мс. (1,00 видеокадр)
Время предзагрузки промежутка : 480 ms
Скриншоты
           
Время раздачи:7\24
Вне форума [Профиль] [ЛС]
Похожие темы
Форум Тема Автор Торрент Отв. Посл. сообщение
./templates/default/images/folder_dl.gif Фантастика, фэнтези, ужасы, мистика Корнев Павел - Приграничье. Книга вторая. Скользкий. [Один, 2011 г., 192, MP3] Omen
1 | 0

0 | 1207

10

2011-04-18 20:50
Omen Последнее
./templates/default/images/folder_dl.gif Фантастика, фэнтези, ужасы, мистика Иар Эльтеррус | Гнев Императора. Книга вторая. Дальний путь (2016) [FB2] moralis
1 | 0

0 | 219

6

2016-03-31 22:47
moralis Последнее
Показать сообщения:    
Ответить на тему

Текущее время: Сегодня 00:20

Часовой пояс: GMT + 3



Вы не можете начинать темы
Вы не можете отвечать на сообщения
Вы не можете редактировать свои сообщения
Вы не можете удалять свои сообщения
Вы не можете голосовать в опросах
Вы не можете прикреплять файлы к сообщениям
Вы не можете скачивать файлы