Сегодня идет свободное скачивание без начисления Download

Куклы / Dolls (Стюарт Гордон) [1986.,Ужасы, Фэнтези, Триллер]HDTVRip

Ответить на тему
 
Автор
Сообщение

sashau ®

Пол:

Стаж: 4 года 11 месяцев

Сообщений: 3785

Торрент-статистика

Пост 29-Ноя-2013 17:22

[Цитировать]

Куклы / Dolls - Год выпуска: 1986
Жанр: Ужасы, Фэнтези, Триллер
Описание фильма:
Застигнутые ненастьем путешественники попадают в усадьбу в лесу, где проживает странная пожилая пара. Созданные этими супругами куклы обладают способностью оживать и даже убивать тех, кто им не нравится…
Режиссер: Стюарт Гордон
Актеры: ен Патрик Уильямс, Кэролин Пёрди-Гордон, Кэрри Лоррэйн, Гай Рольф, Хилари Мейсон, Банти Бэйли, Кэсси Стюарт, Стивен Ли
Продолжительность: 01:12:43
Качество видео: HDTVRip
Перевод: Двуголосый закадровый
Автор перевода: Нтв+

Дата мировой премьеры: 18 апреля 1987, ...
Дата российской премьеры: N/A
Дата выхода DVD релиза: N/A
Видеокодек: Xvid
Битрейт видео: ~1311 kb/s
Размер кадра: 688x384 (1.79:1)
Аудиокодек: AC3 2.0
Битрейт аудио: 128 kbps
Сэмпл: Kukly.1986.Xvid.AC-3.2.0.HDTVRip.Deadmauvlad.Semple.avi

MI

Общее
Полное имя : C:\Users\Deadmauvlad\Desktop\Релизы На выкладку\Kukly.1986.Xvid.AC-3.2.0.HDTVRip.Deadmauvlad.R.G Goldenshara.avi
Формат : AVI
Формат/Информация : Audio Video Interleave
Размер файла : 748 Мбайт
Продолжительность : 1 ч. 12 м.
Общий поток : 1450 Кбит/сек
Название фильма : Kukly.1986.Xvid.AC-3.2.0.HDTVRip
Режиссёр : Deadmauvlad
Жанр : Ужасы
Программа кодирования : VirtualDubMod 1.5.10.3 | www.virtualdub-fr.org || (build 2550/release)
Формат оригинала/Имя : Фильм
Правообладатель : R.G. GoldenShara
Видео
Идентификатор : 0
Формат : MPEG-4 Visual
Профиль формата : Advanced [email protected]
Параметр BVOP формата : 2
Параметр QPel формата : Нет
Параметр GMC формата : Без точки перехода
Параметр матрицы формата : Default (MPEG)
Идентификатор кодека : XVID
Идентификатор кодека/Подсказка : XviD
Продолжительность : 1 ч. 12 м.
Битрейт : 1312 Кбит/сек
Ширина : 688 пикселей
Высота : 384 пикселя
Соотношение сторон : 16:9
Частота кадров : 25,000 кадров/сек
Цветовое пространство : YUV
Субдискретизация насыщенности : 4:2:0
Битовая глубина : 8 бит
Тип развёртки : Прогрессивная
Метод сжатия : С потерями
Бит/(Пиксели*Кадры) : 0.199
Размер потока : 677 Мбайт (91%)
Библиотека кодирования : XviD 1.2.1 (UTC 2008-12-04)
Аудио
Идентификатор : 1
Формат : AC-3
Формат/Информация : Audio Coding 3
Расширение режима : CM (complete main)
Параметр Endianness формата : Big
Идентификатор кодека : 2000
Продолжительность : 1 ч. 12 м.
Вид битрейта : Постоянный
Битрейт : 128 Кбит/сек
Каналы : 2 канала
Расположение каналов : Front: L R
Частота : 48,0 КГц
Битовая глубина : 16 бит
Метод сжатия : С потерями
Размер потока : 66,0 Мбайт (9%)
Выравнивание : Разделение по промежуткам
Продолжительность промежутка : 40 мс. (1,00 видеокадр)
Время предзагрузки промежутка : 500 мс.
Скриншоты        
       
 
Вне форума [Профиль] [ЛС]
Показать сообщения:    
Ответить на тему

Текущее время: Сегодня 13:29

Часовой пояс: GMT + 3



Вы не можете начинать темы
Вы не можете отвечать на сообщения
Вы не можете редактировать свои сообщения
Вы не можете удалять свои сообщения
Вы не можете голосовать в опросах
Вы не можете прикреплять файлы к сообщениям
Вы не можете скачивать файлы