Сегодня идет свободное скачивание без начисления Download

Челюсти / Jaws (1975) BDRip [720p]

Ответить на тему
 
Автор
Сообщение

UndegraundMen ®

Стаж: 3 года 9 месяцев

Сообщений: 28329

Торрент-статистика

Пост 30-Ноя-2013 23:06

[Цитировать]

Челюсти / Jaws (1975) BDRip [720p]- Год выпуска: 1975
Производство: CША / Zanuck/Brown Productions, Universal Pictures
Жанр: ужасы, триллер, приключения
Перевод: Профессиональный (многоголосый), Профессиональный (двухголосый), Профессиональный (одноголосый)
Субтитры: Вшитые отключаемые
Язык субтитров: Русский (Full), Английский (Full)-Дата мировой премьеры: 20 июня 1975
Дата российской премьеры: N/A
Дата украинской премьеры: N/A
Дата выхода DVD релиза: 17 октября 2006, «Юниверсал Пикчерс Рус»
Дата выхода Blu Ray релиза: 16 августа 2012, «Двадцатый Век Фокс СНГ»-Режиссер: Стивен Спилберг
Актеры: Рой Шайдер, Роберт Шоу, Ричард Дрейфусс, Лоррэйн Гари, Мюррэй Хэмилтон, Карл Готтлиб, Джефри Крамер, Сьюзэн Бэклайни, Джонатан Филли, Тед Гроссман-Описание фильма:
Действие картины протекает в течение пяти дней - на острове Э́мити, где расположен небольшой курортный городок. В этом тихом и солнечном месте произошли ужасные трагические события, начало которым было положено ранним утром, когда шеф местной полиции Мартин Броуди и его помощник находят на берегу остатки тела девушки. Она стала первой жертвой огромной большой белой акулы, которая появилась у берегов Эмити...
С каждым днем число жертв кровожадной акулы продолжает увеличиваться. Сможет ли отважный охотник на акул, ветеран Второй мировой войны, рыбак Квинт на своём судне выловить и убить акулу-людоеда? В опасную морскую экспедицию вместе с ним отправляются Мартин Броуди и прибывший на остров эксперт из национального института океанографии Мэтт Хупер.- -Продолжительность: 02:03:54
Качество видео: BDRip [720p]-Видеокодек: MPEG-4 AVC/H.264, 1280x540, 8465 kb/s
Аудио#1: [RUS]: AC3 5.1; 448.00 kbps; 48.0 kHz; 16-bits Проф. многоголосый [Blu-Ray]
Аудио#2: [RUS]: AC3 2.0; 192.00 kbps; 48.0 kHz; 16-bits Проф. многоголосый [Премьер-Видео]
Аудио#3: [RUS]: AC3 2.0; 192.00 kbps; 48.0 kHz; 16-bits Проф. многоголосый [НТВ]
Аудио#4: [RUS]: AC3 2.0; 192.00 kbps; 48.0 kHz; 16-bits Проф. многоголосый [СуперБит]
Аудио#5: [UKR]: AC3 2.0; 192.00 kbps; 48.0 kHz; 16-bits Проф. двухголосый [1+1]
Аудио#6: [RUS]: AC3 5.1; 448.00 kbps; 48.0 kHz; 16-bits Проф. одноголосый [А. Гаврилов]
Аудио#7: [RUS]: AC3 5.1; 448.00 kbps; 48.0 kHz; 16-bits Проф. одноголосый [Ю. Живов (поздний)]
Аудио#8: [RUS]: AC3 5.1; 448.00 kbps; 48.0 kHz; 16-bits Проф. одноголосый [Г. Либергал]
Аудио#9: [RUS]: AC3 2.0; 192.00 kbps; 48.0 kHz; 16-bits Проф. одноголосый [Ю. Живов (ранний)]
Аудио#10: [RUS]: AC3 2.0; 192.00 kbps; 48.0 kHz; 16-bits Проф. одноголосый [Ю. Товбин]
Аудио#11: [ENG]: AC3 5.1; 448.00 kbps; 48.0 kHz; 16-bits [Original]
Дополнительно: Сохранены оригинальные чаптеры как на Blu-Ray

Награды

MediaInfo:

Код:
General
Unique ID                                : 235905701224426548098270855708714793203 (0xB179C9103C34AECEBC36BF5FCC1CF8F3)
Complete name                            : F:\Jaws.1975.720p.BDRip.mkv
Format                                   : Matroska
Format version                           : Version 2
File size                                : 10.5 GiB
Duration                                 : 2h 4mn
Overall bit rate                         : 12.1 Mbps
Movie name                               : Jaws (1975)
Encoded date                             : UTC 2013-11-28 14:57:26
Writing application                      : mkvmerge v5.8.0 ('No Sleep / Pillow') built on Sep  2 2012 15:37:04
Writing library                          : libebml v1.2.3 + libmatroska v1.3.0
Attachment                               : Yes
Video
ID                                       : 1
Format                                   : AVC
Format/Info                              : Advanced Video Codec
Format profile                           : [url=mailto:[email protected]][email protected][/url]
Format settings, CABAC                   : Yes
Format settings, ReFrames                : 12 frames
Muxing mode                              : Header stripping
Codec ID                                 : V_MPEG4/ISO/AVC
Duration                                 : 2h 4mn
Bit rate                                 : 8 465 Kbps
Width                                    : 1 280 pixels
Height                                   : 540 pixels
Display aspect ratio                     : 2.40:1
Frame rate                               : 23.976 fps
Color space                              : YUV
Chroma subsampling                       : 4:2:0
Bit depth                                : 8 bits
Scan type                                : Progressive
Bits/(Pixel*Frame)                       : 0.511
Stream size                              : 7.33 GiB (70%)
Title                                    : Jaws (1975)
Writing library                          : x264 core 125 r2200 999b753
Encoding settings                        : cabac=1 / ref=12 / deblock=1:-3:-3 / analyse=0x3:0x113 / me=tesa / subme=11 / psy=1 / psy_rd=1.10:0.00 / mixed_ref=1 / me_range=16 / chroma_me=1 / trellis=2 / 8x8dct=1 / cqm=0 / deadzone=21,11 / fast_pskip=0 / chroma_qp_offset=-2 / threads=12 / lookahead_threads=2 / sliced_threads=0 / nr=0 / decimate=0 / interlaced=0 / bluray_compat=0 / constrained_intra=0 / bframes=7 / b_pyramid=2 / b_adapt=2 / b_bias=0 / direct=3 / weightb=1 / open_gop=0 / weightp=2 / keyint=250 / keyint_min=23 / scenecut=40 / intra_refresh=0 / rc=crf / mbtree=0 / crf=15.4 / qcomp=0.60 / qpmin=0 / qpmax=69 / qpstep=4 / ip_ratio=1.40 / pb_ratio=1.30 / aq=1:0.70
Language                                 : English
Default                                  : Yes
Forced                                   : No
Audio #1
ID                                       : 2
Format                                   : AC-3
Format/Info                              : Audio Coding 3
Mode extension                           : CM (complete main)
Format settings, Endianness              : Big
Muxing mode                              : Header stripping
Codec ID                                 : A_AC3
Duration                                 : 2h 4mn
Bit rate mode                            : Constant
Bit rate                                 : 448 Kbps
Channel(s)                               : 6 channels
Channel positions                        : Front: L C R, Side: L R, LFE
Sampling rate                            : 48.0 KHz
Bit depth                                : 16 bits
Compression mode                         : Lossy
Stream size                              : 397 MiB (4%)
Title                                    : Blu-ray
Language                                 : Russian
Default                                  : Yes
Forced                                   : No
Audio #2
ID                                       : 3
Format                                   : AC-3
Format/Info                              : Audio Coding 3
Mode extension                           : CM (complete main)
Format settings, Endianness              : Big
Muxing mode                              : Header stripping
Codec ID                                 : A_AC3
Duration                                 : 2h 4mn
Bit rate mode                            : Constant
Bit rate                                 : 192 Kbps
Channel(s)                               : 2 channels
Channel positions                        : Front: L R
Sampling rate                            : 48.0 KHz
Bit depth                                : 16 bits
Compression mode                         : Lossy
Stream size                              : 170 MiB (2%)
Title                                    : Премьер Видео
Language                                 : Russian
Default                                  : No
Forced                                   : No
Audio #3
ID                                       : 4
Format                                   : AC-3
Format/Info                              : Audio Coding 3
Mode extension                           : CM (complete main)
Format settings, Endianness              : Big
Muxing mode                              : Header stripping
Codec ID                                 : A_AC3
Duration                                 : 2h 4mn
Bit rate mode                            : Constant
Bit rate                                 : 192 Kbps
Channel(s)                               : 2 channels
Channel positions                        : Front: L R
Sampling rate                            : 48.0 KHz
Bit depth                                : 16 bits
Compression mode                         : Lossy
Stream size                              : 170 MiB (2%)
Title                                    : НТВ
Language                                 : Russian
Default                                  : No
Forced                                   : No
Audio #4
ID                                       : 5
Format                                   : AC-3
Format/Info                              : Audio Coding 3
Mode extension                           : CM (complete main)
Format settings, Endianness              : Big
Muxing mode                              : Header stripping
Codec ID                                 : A_AC3
Duration                                 : 2h 4mn
Bit rate mode                            : Constant
Bit rate                                 : 192 Kbps
Channel(s)                               : 2 channels
Channel positions                        : Front: L R
Sampling rate                            : 48.0 KHz
Bit depth                                : 16 bits
Compression mode                         : Lossy
Stream size                              : 170 MiB (2%)
Title                                    : СуперБит
Language                                 : Russian
Default                                  : No
Forced                                   : No
Audio #5
ID                                       : 6
Format                                   : AC-3
Format/Info                              : Audio Coding 3
Mode extension                           : CM (complete main)
Format settings, Endianness              : Big
Muxing mode                              : Header stripping
Codec ID                                 : A_AC3
Duration                                 : 2h 4mn
Bit rate mode                            : Constant
Bit rate                                 : 192 Kbps
Channel(s)                               : 2 channels
Channel positions                        : Front: L R
Sampling rate                            : 48.0 KHz
Bit depth                                : 16 bits
Compression mode                         : Lossy
Stream size                              : 170 MiB (2%)
Title                                    : 1+1
Language                                 : Ukrainian
Default                                  : No
Forced                                   : No
Audio #6
ID                                       : 7
Format                                   : AC-3
Format/Info                              : Audio Coding 3
Mode extension                           : CM (complete main)
Format settings, Endianness              : Big
Muxing mode                              : Header stripping
Codec ID                                 : A_AC3
Duration                                 : 2h 4mn
Bit rate mode                            : Constant
Bit rate                                 : 448 Kbps
Channel(s)                               : 6 channels
Channel positions                        : Front: L C R, Side: L R, LFE
Sampling rate                            : 48.0 KHz
Bit depth                                : 16 bits
Compression mode                         : Lossy
Stream size                              : 397 MiB (4%)
Title                                    : Гаврилов
Language                                 : Russian
Default                                  : No
Forced                                   : No
Audio #7
ID                                       : 8
Format                                   : AC-3
Format/Info                              : Audio Coding 3
Mode extension                           : CM (complete main)
Format settings, Endianness              : Big
Muxing mode                              : Header stripping
Codec ID                                 : A_AC3
Duration                                 : 2h 4mn
Bit rate mode                            : Constant
Bit rate                                 : 448 Kbps
Channel(s)                               : 6 channels
Channel positions                        : Front: L C R, Side: L R, LFE
Sampling rate                            : 48.0 KHz
Bit depth                                : 16 bits
Compression mode                         : Lossy
Stream size                              : 397 MiB (4%)
Title                                    : Живов (поздний)
Language                                 : Russian
Default                                  : No
Forced                                   : No
Audio #8
ID                                       : 9
Format                                   : AC-3
Format/Info                              : Audio Coding 3
Mode extension                           : CM (complete main)
Format settings, Endianness              : Big
Muxing mode                              : Header stripping
Codec ID                                 : A_AC3
Duration                                 : 2h 4mn
Bit rate mode                            : Constant
Bit rate                                 : 448 Kbps
Channel(s)                               : 6 channels
Channel positions                        : Front: L C R, Side: L R, LFE
Sampling rate                            : 48.0 KHz
Bit depth                                : 16 bits
Compression mode                         : Lossy
Stream size                              : 397 MiB (4%)
Title                                    : Либергал
Language                                 : Russian
Default                                  : No
Forced                                   : No
Audio #9
ID                                       : 10
Format                                   : AC-3
Format/Info                              : Audio Coding 3
Mode extension                           : CM (complete main)
Format settings, Endianness              : Big
Muxing mode                              : Header stripping
Codec ID                                 : A_AC3
Duration                                 : 2h 4mn
Bit rate mode                            : Constant
Bit rate                                 : 192 Kbps
Channel(s)                               : 2 channels
Channel positions                        : Front: L R
Sampling rate                            : 48.0 KHz
Bit depth                                : 16 bits
Compression mode                         : Lossy
Stream size                              : 170 MiB (2%)
Title                                    : Живов (ранний)
Language                                 : Russian
Default                                  : No
Forced                                   : No
Audio #10
ID                                       : 11
Format                                   : AC-3
Format/Info                              : Audio Coding 3
Mode extension                           : CM (complete main)
Format settings, Endianness              : Big
Muxing mode                              : Header stripping
Codec ID                                 : A_AC3
Duration                                 : 2h 4mn
Bit rate mode                            : Constant
Bit rate                                 : 192 Kbps
Channel(s)                               : 2 channels
Channel positions                        : Front: L R
Sampling rate                            : 48.0 KHz
Bit depth                                : 16 bits
Compression mode                         : Lossy
Stream size                              : 170 MiB (2%)
Title                                    : Товбин
Language                                 : Russian
Default                                  : No
Forced                                   : No
Audio #11
ID                                       : 12
Format                                   : AC-3
Format/Info                              : Audio Coding 3
Mode extension                           : CM (complete main)
Format settings, Endianness              : Big
Muxing mode                              : Header stripping
Codec ID                                 : A_AC3
Duration                                 : 2h 4mn
Bit rate mode                            : Constant
Bit rate                                 : 448 Kbps
Channel(s)                               : 6 channels
Channel positions                        : Front: L C R, Side: L R, LFE
Sampling rate                            : 48.0 KHz
Bit depth                                : 16 bits
Compression mode                         : Lossy
Stream size                              : 397 MiB (4%)
Title                                    : Original
Language                                 : English
Default                                  : No
Forced                                   : No
Text #1
ID                                       : 13
Format                                   : UTF-8
Codec ID                                 : S_TEXT/UTF8
Codec ID/Info                            : UTF-8 Plain Text
Title                                    : Full
Language                                 : Russian
Default                                  : No
Forced                                   : No
Text #2
ID                                       : 14
Format                                   : UTF-8
Codec ID                                 : S_TEXT/UTF8
Codec ID/Info                            : UTF-8 Plain Text
Title                                    : Full
Language                                 : English
Default                                  : No
Forced                                   : No
Menu
00:00:00.000                             : en:00:00:00.000
00:01:48.900                             : en:00:01:48.900
00:07:33.787                             : en:00:07:33.787
00:11:20.179                             : en:00:11:20.179
00:13:35.356                             : en:00:13:35.356
00:18:11.590                             : en:00:18:11.590
00:24:30.260                             : en:00:24:30.260
00:27:41.243                             : en:00:27:41.243
00:32:46.673                             : en:00:32:46.673
00:45:18.007                             : en:00:45:18.007
00:53:31.041                             : en:00:53:31.041
01:01:28.643                             : en:01:01:28.643
01:06:11.801                             : en:01:06:11.801
01:21:03.192                             : en:01:21:03.192
01:26:24.971                             : en:01:26:24.971
01:36:24.237                             : en:01:36:24.237
01:50:00.803                             : en:01:50:00.803
01:56:47.167                             : en:01:56:47.167
01:57:52.357                             : en:01:57:52.357
02:02:35.640                             : en:02:02:35.640
Скриншоты:-          -
Вне форума [Профиль] [ЛС]
Показать сообщения:    
Ответить на тему

Текущее время: Сегодня 22:51

Часовой пояс: GMT + 3



Вы не можете начинать темы
Вы не можете отвечать на сообщения
Вы не можете редактировать свои сообщения
Вы не можете удалять свои сообщения
Вы не можете голосовать в опросах
Вы не можете прикреплять файлы к сообщениям
Вы не можете скачивать файлы