Сегодня идет свободное скачивание без начисления Download

Плата за страх / Le salaire de la peur / The Wages of Fear (1953) BDRemux [1080p]

Ответить на тему
 
Автор
Сообщение

UndegraundMen ®

Стаж: 3 года 9 месяцев

Сообщений: 28329

Торрент-статистика

Пост 01-Дек-2013 23:01

[Цитировать]

Плата за страх / Le salaire de la peur / The Wages of Fear (1953) BDRemux- Год выпуска: 1953
Жанр: Триллер, Драма, Приключения
Описание фильма:
В одном из нефтяных районов Гватемалы происходит авария на буровой установке, грозящая обернуться крупной катастрофой. Буровая скважина полыхает, как чудовищный факел, и, чтобы остановить пожар, необходим мощный направленный взрыв.
Четверым отчаянным добровольцам, вызвавшимся доставить взрывчатку к месту аварии, нефтяная компания обещает крупное вознаграждение. Риск велик, ведь при малейшем толчке цистерны с жидким нитроглицерином грузовик взлетит на воздух, но желающих рискнуть много: эта смертельная поездка – единственный способ заработать в нищем поселке.
Режиссер: Анри-Жорж Клузо
Актеры: Ив Монтан, Шарль Ванель, Фолько Люлли, Петер ван Эйк, Вера Клузо, Уильям Таббс, Дарио Морено, Йо Дест, Антонио Чента, Луиш ди Лима-
Награды:
Каннский кинофестиваль, 1953 год:
* Большой приз фестиваля
* Особое упоминание
Берлинский кинофестиваль, 1953 год:
* Золотой Медведь
Британская академия кино и телевизионных искусств, 1955 год:
* Лучший фильм
-Продолжительность: 02:28:09
Качество видео: BDRemux
Перевод: Дублированный, многоголосый
Контейнер: MKV
Видео: MPEG-4 AVC/H.264, 1920x1080, ~ 25500 kbps, 23.976 fps
Аудио 1: Русский AC3 2.0, 48 kHz, 192 kbps - Советский дубляж со вставками MVO
Аудио 2: Русский AC3 2.0, 48 kHz, 192 kbps - Многоголосый закадровый (Prestige Cinema)
Аудио 3: Французский AC3 1.0, 48 kHz, 640 kbps
Субтитры: Русские (Prestige Cinema), английские

MediaInfo

The.Wages.of.Fear.(1953).BDRemux.mkv
Format : Matroska
Format version : Version 2
File size : 29.0 GiB
Duration : 2h 28mn
Overall bit rate mode : Variable
Overall bit rate : 28.0 Mbps
Movie name : The Wages of Fear.(1953).BDRemux
Encoded date : UTC 2013-11-30 15:07:29
Writing application : mkvmerge v5.7.0 ('The Whirlwind') built on Jul 8 2012 20:08:51
Writing library : libebml v1.2.3 + libmatroska v1.3.0
Video
ID : 1
Format : AVC
Format/Info : Advanced Video Codec
Format profile : [url=mailto:[email protected]][email protected][/url]
Format settings, CABAC : Yes
Format settings, ReFrames : 4 frames
Format settings, GOP : M=3, N=12
Muxing mode : Container [email protected]
Codec ID : V_MPEG4/ISO/AVC
Duration : 2h 28mn
Bit rate mode : Variable
Bit rate : 26.4 Mbps
Maximum bit rate : 37.0 Mbps
Width : 1 920 pixels
Height : 1 080 pixels
Display aspect ratio : 16:9
Frame rate mode : Constant
Frame rate : 23.976 fps
Color space : YUV
Chroma subsampling : 4:2:0
Bit depth : 8 bits
Scan type : Progressive
Bits/(Pixel*Frame) : 0.531
Stream size : 27.3 GiB (94%)
Title : The Wages of Fear.(1953).BDRemux
Language : English
Default : No
Forced : No
Color primaries : BT.709
Transfer characteristics : BT.709
Matrix coefficients : BT.709
Audio #1
ID : 2
Format : AC-3
Format/Info : Audio Coding 3
Mode extension : CM (complete main)
Format settings, Endianness : Big
Codec ID : A_AC3
Duration : 2h 28mn
Bit rate mode : Constant
Bit rate : 192 Kbps
Channel(s) : 2 channels
Channel positions : Front: L R
Sampling rate : 48.0 KHz
Bit depth : 16 bits
Compression mode : Lossy
Stream size : 203 MiB (1%)
Title : AC3 2.0 @ 192 kbps - Dub
Language : Russian
Default : Yes
Forced : No
Audio #2
ID : 3
Format : AC-3
Format/Info : Audio Coding 3
Mode extension : CM (complete main)
Format settings, Endianness : Big
Codec ID : A_AC3
Duration : 2h 28mn
Bit rate mode : Constant
Bit rate : 192 Kbps
Channel(s) : 2 channels
Channel positions : Front: L R
Sampling rate : 48.0 KHz
Bit depth : 16 bits
Compression mode : Lossy
Stream size : 203 MiB (1%)
Title : AC3 2.0 @ 192 kbps - MVO, Prestige Cinema
Language : Russian
Default : No
Forced : No
Audio #3
ID : 4
Format : AC-3
Format/Info : Audio Coding 3
Mode extension : CM (complete main)
Format settings, Endianness : Big
Codec ID : A_AC3
Duration : 2h 28mn
Bit rate mode : Constant
Bit rate : 640 Kbps
Channel(s) : 1 channel
Channel positions : Front: C
Sampling rate : 48.0 KHz
Bit depth : 16 bits
Compression mode : Lossy
Stream size : 678 MiB (2%)
Title : AC3 1.0 @ 640 kbps - Original
Language : French
Default : No
Forced : No
Text #1
ID : 5
Format : UTF-8
Codec ID : S_TEXT/UTF8
Codec ID/Info : UTF-8 Plain Text
Title : Prestige Cinema
Language : Russian
Default : No
Forced : No
Text #2
ID : 6
Format : UTF-8
Codec ID : S_TEXT/UTF8
Codec ID/Info : UTF-8 Plain Text
Language : English
Default : No
Forced : No
Menu
00:00:00.000 : en:Las Piedras
00:08:28.216 : en:Jo Arrives
00:15:47.863 : en:The Date
00:23:49.052 : en:Old Friends and Lovers
00:31:04.696 : en:Bar Brawl
00:36:51.167 : en:Victims
00:40:46.444 : en:SOC Recruits
00:46:37.336 : en:The Lucky Four
00:53:29.456 : en:Scared Stiff
01:00:49.604 : en:Linda Pleads
01:06:18.849 : en:Jo's Jitters
01:13:24.733 : en:Forty Miles Per Hour
01:19:44.780 : en:Close Call!
01:24:40.366 : en:Rotten Wood
01:30:16.369 : en:Jo Flees
01:38:21.145 : en:The Wages of Fear
01:43:27.784 : en:A Rock in the Road
01:49:07.999 : en:"Clear Out!
01:56:27.605 : en:A Presentable Corpse
02:02:30.926 : en:"I'm the Strongest"
02:07:46.700 : en:The Oil Pit
02:15:58.525 : en:Almost There
02:24:30.912 : en:The Reward
Скриншоты:            Время раздачи: c 09:00 до 01:00
Вне форума [Профиль] [ЛС]
Похожие темы
Форум Тема Автор Торрент Отв. Посл. сообщение
./templates/default/images/folder_dl.gif Системы для бизнеса 1С:Зарплата и Управление Персоналом. Конфигурации<wbr> 2.5 (x86+x64) [2014 г.] [RUS] Varius
0 | 1

0 | 1421

16

2014-05-24 06:48
Varius Последнее
Показать сообщения:    
Ответить на тему

Текущее время: Сегодня 14:54

Часовой пояс: GMT + 3



Вы не можете начинать темы
Вы не можете отвечать на сообщения
Вы не можете редактировать свои сообщения
Вы не можете удалять свои сообщения
Вы не можете голосовать в опросах
Вы не можете прикреплять файлы к сообщениям
Вы не можете скачивать файлы