Сегодня идет свободное скачивание без начисления Download

Осада базы Глория / The Siege of Firebase Gloria (1989) HDTVRip

Ответить на тему
 
Автор
Сообщение

UndegraundMen ®

Стаж: 3 года 9 месяцев

Сообщений: 28329

Торрент-статистика

Пост 01-Дек-2013 23:04

[Цитировать]

Осада базы Глория / The Siege of Firebase Gloria (1989) HDTVRip-«Несмотря на все трудности, они пошли в ад и обратно»- Год выпуска: 1989
Жанр: Боевик, Драма, Военный
Описание фильма:
Во время войны во Вьетнаме в ходе выполнения боевого задания группа морских пехотинцев попадает на базу огневой поддержки "Глория". Ее гарнизон занимается лишь тем, что пьянствует и развлекается как может. Морпехи довольно быстро налаживают дисциплину и берут ситуацию в свои руки...
Режиссер: Брайан Тренчард-Смит
Актеры: Уингз Хаузер, Р. Ли Эрми, Роберт Аревало, Марк Нили, Гэри Хершбергер, Клайд Джоунс, Марги Джерард, Ричард Кулмэн, Джон Кэлвин, Альберт Попуэлл, Майкл Круз, Эрих Хаузер, Дон Уилсон, Ник Николсон
Продолжительность: 01:35:13
Качество видео: HDTVRip
Перевод: Профессиональный (двухголосый закадровый) НТВ+ + Авторский (одноголосый закадровый) А. Карповский

Дата мировой премьеры: 27 января 1989
Видеокодек: Xvid
Битрейт видео: ~1795 kbps
Размер кадра: 704x400
Audio #1: 48 kHz, Microsoft MPEG, 2 ch, ~192.00 kbps avg - Профессиональный (двухголосый закадровый) НТВ+
Audio #2: 48 kHz, AC3 Dolby Digital, 2/0 (L,R) ch, ~192 kbps - Авторский (одноголосый закадровый) А. Карповский
&

MI

Общее
Полное имя : D:\Рипы\The.Siege.of.Firebase.Gloria.1989.HDTVRip.avi
Формат : AVI
Формат/Информация : Audio Video Interleave
Размер файла : 1,46 Гбайт
Продолжительность : 1 ч. 35 м.
Общий поток : 2193 Кбит/сек
Название фильма : The.Siege.of.Firebase.Gloria.1989.HDTVRip
Режиссёр : rip by maygli
Программа кодирования : VirtualDubModRus 1.5.10.2 (build 2542/release)
Правообладатель : ... (RG Rulya74)
Видео
Идентификатор : 0
Формат : MPEG-4 Visual
Профиль формата : Advanced [email protected]
Параметр BVOP формата : 1
Параметр QPel формата : Нет
Параметр GMC формата : Без точки перехода
Параметр матрицы формата : Выборочная
Идентификатор кодека : XVID
Идентификатор кодека/Подсказка : XviD
Продолжительность : 1 ч. 35 м.
Битрейт : 1795 Кбит/сек
Ширина : 704 пикселя
Высота : 400 пикселей
Соотношение сторон : 16:9
Частота кадров : 25,000 кадров/сек
Цветовое пространство : YUV
Субдискретизация насыщенности : 4:2:0
Битовая глубина : 8 бит
Тип развёртки : Прогрессивная
Метод сжатия : С потерями
Бит/(Пиксели*Кадры) : 0.255
Размер потока : 1,19 Гбайт (82%)
Библиотека кодирования : XviD 65
Аудио #1
Идентификатор : 1
Формат : MPEG Audio
Версия формата : Version 1
Профиль формата : Layer 2
Идентификатор кодека : 50
Продолжительность : 1 ч. 35 м.
Вид битрейта : Постоянный
Битрейт : 192 Кбит/сек
Каналы : 2 канала
Частота : 48,0 КГц
Метод сжатия : С потерями
Размер потока : 131 Мбайт (9%)
Выравнивание : Соединение по промежуткам
Продолжительность промежутка : 40 мс. (1,00 видеокадр)
Время предзагрузки промежутка : 504 мс.
Заголовок : Профессиональный (двухголосый закадровый) НТВ+
Аудио #2
Идентификатор : 2
Формат : AC-3
Формат/Информация : Audio Coding 3
Расширение режима : CM (complete main)
Параметр Endianness формата : Big
Идентификатор кодека : 2000
Продолжительность : 1 ч. 35 м.
Вид битрейта : Постоянный
Битрейт : 192 Кбит/сек
Каналы : 2 канала
Расположение каналов : Front: L R
Частота : 48,0 КГц
Битовая глубина : 16 бит
Метод сжатия : С потерями
Размер потока : 131 Мбайт (9%)
Выравнивание : Разделение по промежуткам
Продолжительность промежутка : 40 мс. (1,00 видеокадр)
Время предзагрузки промежутка : 500 мс.
Заголовок : Авторский (одноголосый закадровый) А. Карповский
Скриншоты:
       
   
Время раздачи: с 10:00 до 22:30
Вне форума [Профиль] [ЛС]
Показать сообщения:    
Ответить на тему

Текущее время: Сегодня 17:25

Часовой пояс: GMT + 3



Вы не можете начинать темы
Вы не можете отвечать на сообщения
Вы не можете редактировать свои сообщения
Вы не можете удалять свои сообщения
Вы не можете голосовать в опросах
Вы не можете прикреплять файлы к сообщениям
Вы не можете скачивать файлы