Сегодня идет свободное скачивание без начисления Download

Частная жизнь Петра Виноградова (1934) TVRip

Ответить на тему
 
Автор
Сообщение

UndegraundMen ®

Стаж: 3 года 9 месяцев

Сообщений: 28329

Торрент-статистика

Пост 04-Дек-2013 04:51

[Цитировать]

Частная жизнь Петра Виноградова (1934) TVRip- Год выпуска: 1934
Жанр: Мелодрама, Комедия
Описание фильма:
Выпускники школы Петр Виноградов, Сеня Кауфман и Котя Охотников отправляются из далекого города в Москву. Приятели обещают не забывать родной город и друзей. Петя с грустью прощается с любимой девушкой Валей, мечтающей поступить в Московскую консерваторию. Приехав в столицу, друзья поступают работать на автозавод и устраиваются в вечерний вуз. Жизнь только начинается.
Режиссер: Александр Мачерет
Сценарий: Лев Славин
Оператор: Евгений Славинский
Композитор: Лев Книппер
Художник: Алексей Уткин
Актеры: Борис Ливанов, Валентин Цишевский, Константин Градополов (старший), Галина Пашкова, Надежда Арди, Иван Переверзев, Татьяна Барышева, Ева Милютина
Продолжительность: 01:23:34
Качество видео: TVRip

Видеокодек: Xvid
Битрейт видео: ~1040 Kbps
Размер кадра: 704 x 528
Аудиокодек: MP3, 2 ch
Битрейт аудио: 192 kbps

MediaInfo

General
Complete name : Private.Life.P.Vinogradova.1934.TVRip.avi
Format : AVI
Format/Info : Audio Video Interleave
File size : 745 MiB
Duration : 1h 23mn
Overall bit rate : 1 246 Kbps
Writing library : VirtualDub build 32842/release
Video
ID : 0
Format : MPEG-4 Visual
Format profile : Advanced [email protected]
Format settings, BVOP : Yes
Format settings, QPel : No
Format settings, GMC : No warppoints
Format settings, Matrix : Default (H.263)
Codec ID : XVID
Codec ID/Hint : XviD
Duration : 1h 23mn
Bit rate : 1 041 Kbps
Width : 704 pixels
Height : 528 pixels
Display aspect ratio : 4:3
Frame rate : 25.000 fps
Color space : YUV
Chroma subsampling : 4:2:0
Bit depth : 8 bits
Scan type : Progressive
Compression mode : Lossy
Bits/(Pixel*Frame) : 0.112
Stream size : 622 MiB (84%)
Writing library : XviD 1.2.1 (UTC 2008-12-04)
Audio
ID : 1
Format : MPEG Audio
Format version : Version 1
Format profile : Layer 3
Mode : Joint stereo
Mode extension : MS Stereo
Codec ID : 55
Codec ID/Hint : MP3
Duration : 1h 23mn
Bit rate mode : Constant
Bit rate : 192 Kbps
Channel count : 2 channels
Sampling rate : 48.0 KHz
Compression mode : Lossy
Stream size : 115 MiB (15%)
Alignment : Aligned on interleaves
Interleave, duration : 24 ms (0.60 video frame)
Interleave, preload duration : 504 ms
Скриншоты:          
         
Время раздачи: с 09:00 до 20:00
Вне форума [Профиль] [ЛС]
Похожие темы
Форум Тема Автор Торрент Отв. Посл. сообщение
./templates/default/images/folder_dl.gif Мультимедийные приложения ООО "Ремсток" - Отопление частного дома своими руками [2011] unpacked Omen
1 | 0

0 | 142

53

2013-01-05 18:59
Omen Последнее
Показать сообщения:    
Ответить на тему

Текущее время: Сегодня 16:40

Часовой пояс: GMT + 3



Вы не можете начинать темы
Вы не можете отвечать на сообщения
Вы не можете редактировать свои сообщения
Вы не можете удалять свои сообщения
Вы не можете голосовать в опросах
Вы не можете прикреплять файлы к сообщениям
Вы не можете скачивать файлы