Сегодня идет свободное скачивание без начисления Download

Разборка в Бронксе / Rumble In The Bronx / Hong faan kui (Стэнли Тонг) [1995, боевик, триллер, комедия, криминал, HDRip] MVO

Ответить на тему
 
Автор
Сообщение

O.S.A. ®

Пол:

Стаж: 3 года 1 месяц

Сообщений: 4520

Откуда: СССР

Торрент-статистика

Пост 04-Дек-2013 14:27

[Цитировать]

--Разборка в Бронксе / Rumble In The Bronx / Hong faan kui-«Нет страха. Нет равных.»-- Год выхода: 1995
Страна: Канада, Гонконг
Производство: Golden Harvest Company Ltd., Maple Ridge Films, New Line Cinema
Жанр: боевик, триллер, комедия, криминал
Продолжительность: 01:28:34
Перевод: Профессиональный (многоголосый закадровый)-Режиссер: Стэнли Тонг-В ролях: Джеки Чан, Анита Муи, Франсуаза Йип, Билл Тун, Марк Экерстрим, Гарвин Кросс, Морган Лам, Эйлен Сит, Чан Ман Чинг, Фред Андруччи...-О фильме: Кеунг, полицейский из Гонконга, приезжает к своему дяде в Америку на свадьбу. Дядя как раз продал свой супермаркет красивой китаянке, ни слова не сказав новой хозяйке о том, что на магазин имеют виды бандиты, и уехал. Кеунг, конечно же, заступается за симпатичную бизнес-леди и устраивает рэкетирам разборку. Но на этом подвиги азиатского полицейского в нью-йоркских кварталах не заканчиваются! Кеунг начинает жесткое противостояние гангстерам в деле о пропаже бриллиантов…-- --Качество: HDRip
Формат: AVI
Видео кодек: XviD
Аудио кодек: МР3
Видео: 688x288 (2.40:1), 23.976 fps, XviD MPEG-4, ~1038 kbps avg, 0.218 bit/pixel
Аудио: 48.0 kHz, MPEG Audio Layer 3, 2 ch, ~128.00 kbps avg
Субтитры: нет--

Media Info

General
Complete name : D:Razborka.v.Bronkse.1995.HDRip.XviD.744mb.avi
Format : AVI
Format/Info : Audio Video Interleave
File size : 744 MiB
Duration : 1h 28mn
Overall bit rate : 1 175 Kbps
Writing application : VirtualDubMod 1.5.10.2 (build 2540/release)
Writing library : VirtualDubMod build 2540/release
Video
ID : 0
Format : MPEG-4 Visual
Format profile : Advanced [email protected]
Format settings, BVOP : 2
Format settings, QPel : No
Format settings, GMC : No warppoints
Format settings, Matrix : Default (MPEG)
Codec ID : XVID
Codec ID/Hint : XviD
Duration : 1h 28mn
Bit rate : 1 038 Kbps
Width : 688 pixels
Height : 288 pixels
Display aspect ratio : 2.40:1
Frame rate : 23.976 fps
Color space : YUV
Chroma subsampling : 4:2:0
Bit depth : 8 bits
Scan type : Progressive
Compression mode : Lossy
Bits/(Pixel*Frame) : 0.218
Stream size : 657 MiB (88%)
Writing library : XviD 1.2.1 (UTC 2008-12-04)
Audio
ID : 1
Format : MPEG Audio
Format version : Version 1
Format profile : Layer 3
Codec ID : 55
Codec ID/Hint : MP3
Duration : 1h 28mn
Bit rate mode : Constant
Bit rate : 128 Kbps
Channel(s) : 2 channels
Sampling rate : 48.0 KHz
Compression mode : Lossy
Stream size : 81.1 MiB (11%)
Alignment : Aligned on interleaves
Interleave, duration : 42 ms (1.00 video frame)
Interleave, preload duration : 504 ms
Writing library : LAME3.98r
Encoding settings : -m s -V 4 -q 2 -lowpass 17 -b 128

Скриншоты

         
-- --

_________________

===============================
IGNOSCITO SAEPE ALTERI, NUNQUAM TIBI
Вне форума [Профиль] [ЛС]
Показать сообщения:    
Ответить на тему

Текущее время: Сегодня 00:21

Часовой пояс: GMT + 3



Вы не можете начинать темы
Вы не можете отвечать на сообщения
Вы не можете редактировать свои сообщения
Вы не можете удалять свои сообщения
Вы не можете голосовать в опросах
Вы не можете прикреплять файлы к сообщениям
Вы не можете скачивать файлы