Сегодня идет свободное скачивание без начисления Download

День дельфина / The Day of the Dolphin (1973) DVDRip

Ответить на тему
 
Автор
Сообщение

UndegraundMen ®

Стаж: 3 года 9 месяцев

Сообщений: 28329

Торрент-статистика

Пост 05-Дек-2013 11:00

[Цитировать]

День дельфина / The Day of the Dolphin (1973) DVDRip- Год выпуска: 1973
Жанр: Фантастика, Триллер, Драма
Страна: США
Описание фильма:
На небольшом острове расположился Центр морской биологии доктора Тарелла. Предмет исследования ученых — дельфины-афалины и поиск средств общения с ними. Родившийся в неволе дельфин Альфа научился не только понимать Тарелла, но и повторять простые слова. Спонсоры Тарелла решили использовать достижения ученого в военных целях. С помощью сотрудника лаборатории Дэйвида они похитили Альфу и его подругу Бету и, убедившись в способности дельфинов взрывать «корабли противника», решили избавиться от них. Но умные животные, подорвав судно, приплыли к друзьям, на остров. Тарелл понял, что мирный Центр будет закрыт, и выпустил своих питомцев в открытый океан.
Фильм снят по научно-фантастическому роману Робера Мерля «Разумное животное».
Режиссер: Майк Николс
Сценарий: Бак Генри, Робер Мерль
Композитор: Жорж Делерю
Художники: Ричард Силберт, Анджело П. Грэхэм, Антея Силберт
Актеры: Джордж К. Скотт, Триш Ван Девере, Пол Сорвино, Фриц Уивер, Джон Коркс, Эдвард Херрманн, Лесли Чарлсон, Джон Дэвид Карсон, Виктория Расимо, Джон Денер
Продолжительность: 01:44:28
Качество видео: DVDRip
Перевод: Дублированный, советский дубляж "Мосфильм"
Язык субтитров: Русские
Вид субтитров: Отдельным файлом

Дата мировой премьеры: 19.12.73
Награды:
Оскар, 1974 год Номинации (2): Лучший звук. Лучший саундтрек к драматическому фильму
Золотой глобус, 1974 год Номинации (1): Лучший саундтрек
Сатурн, 1975 год Номинации (1): Лучший научно-фантастический фильм
Video: 720x304 (2.37:1), 23.976 fps, XviD MPEG-4 ~1785 kbps avg, 0.34 bit/pixel
Audio: 48 kHz, AC3 Dolby Digital, 2/0 (L,R) ch, ~192 kbps

Mediainfo:

Полное имя : Z:\мои видеозаписи\Драма\The Day of the Dolphin\The Day of the Dolphin.avi
Формат : AVI
Формат/Информация : Audio Video Interleave
Размер файла : 1,45 Гбайт
Продолжительность : 1 ч. 44 м.
Общий поток : 1987 Кбит/сек
Название фильма : The Day of the Dolphin
Программа кодирования : VirtualDubMod 1.5.10.2 (build 2540/release)
Видео
Идентификатор : 0
Формат : MPEG-4 Visual
Профиль формата : Advanced [email protected]
Параметр BVOP формата : 2
Параметр QPel формата : Нет
Параметр GMC формата : Без точки перехода
Параметр матрицы формата : Default (H.263)
Режим смешивания : Сжатый битовый поток
Идентификатор кодека : XVID
Идентификатор кодека/Подсказка : XviD
Продолжительность : 1 ч. 44 м.
Битрейт : 1785 Кбит/сек
Ширина : 720 пикселей
Высота : 304 пикселя
Соотношение сторон : 2,35:1
Частота кадров : 23,976 кадра/сек
Цветовое пространство : YUV
Субдискретизация насыщенности : 4:2:0
Битовая глубина : 8 бит
Тип развёртки : Прогрессивная
Метод сжатия : С потерями
Бит/(Пиксели*Кадры) : 0.340
Размер потока : 1,30 Гбайт (90%)
Библиотека кодирования : XviD 1.2.1 (UTC 2008-12-04)
Аудио
Идентификатор : 1
Формат : AC-3
Формат/Информация : Audio Coding 3
Расширение режима : CM (complete main)
Параметр Endianness формата : Big
Идентификатор кодека : 2000
Продолжительность : 1 ч. 44 м.
Вид битрейта : Постоянный
Битрейт : 192 Кбит/сек
Каналы : 2 канала
Расположение каналов : Front: L R
Частота : 48,0 КГц
Битовая глубина : 16 бит
Метод сжатия : С потерями
Размер потока : 143 Мбайт (10%)
Выравнивание : Разделение по промежуткам
Продолжительность промежутка : 42 мс. (1,00 видеокадр)
Время предзагрузки промежутка : 500 мс.
Скриншоты:
           

Рецензия с Кинопоиска

Интерес ко всему живому, возникает в детстве. В советское время, транслировали научно-фантастический фильм, «День дельфина», который отложился в сознании и заставил задуматься о дельфинах, как о классе плохо изученных и объясненных наукой. В кинофильме, происходит сравнение человека с дельфином, считается, что у млекопитающих есть интеллект и можно научить дельфина говорить. И правда, дельфин, по имени Альфа, рожденный в неволе, научится понимать доктора Тарелла, которого играет Джордж К. Скотт…
На отдаленном острове, ученые-этологи, изучают поведение дельфинов. Выступая с лекцией, доктору задают вопрос об использовании способностей млекопитающих. Внезапно, об уникальности дельфинов узнают военные-авантюристы, которые хотят использовать их в организации терактов…
«День дельфина» Майка Николса, по роману Робера Мерля «Разумное животное» — очень трогательный фильм, снятый с любовью к морским обитателям. Также, в фильме прослеживается этический подтекст, сострадание и милосердие к дельфинам выходят на передний план. Альфа и Бета, как дети доктору и его жене, которым предстоит сделать сложный, но необходимый выбор, чтобы спасти жизни, подвергающиеся опасности…
Волнительны моменты, когда Альфа произносит первые простые слова па (папа), ма (мама), лю (люблю). Когда просит Тарелла, выпустить в бассейн Бету, его подружку, которую любит. Когда Альфа прощается со своими «родителями», кажется, сердце вот-вот разорвется…
Дельфины заслуженно считаются одними из самых удивительных созданий на всём белом свете! Исследования, основанные на математическом анализе частоты встречающихся слов и букв, говорят о том, что язык дельфинов имеет смысловую нагрузку как человеческий язык. Дельфины хорошо подражают посторонним звукам, но научить дельфина говорить пока ещё не удалось, никому… Дельфины, помогают друг другу и никогда не бросают собратьев в беде. Этим они очень похожи на людей, им свойственны взаимопомощь и самопожертвование…
Музыка Жоржа Делерю, которая звучит в фильме, удостоена номинации на «Оскар» в 1974 году. Она передает тревогу и печаль, мелодична и спокойна, но в опасных моментах сюжета набирает крещендо. Как океан она волнуется и успокаивается, заставляя зрителя глубже сочувствовать и сопереживать героям этой потрясающей картины…
  • юлия1979
Время раздачи: с 09-00 до 23-00
Вне форума [Профиль] [ЛС]
Показать сообщения:    
Ответить на тему

Текущее время: Сегодня 21:01

Часовой пояс: GMT + 3



Вы не можете начинать темы
Вы не можете отвечать на сообщения
Вы не можете редактировать свои сообщения
Вы не можете удалять свои сообщения
Вы не можете голосовать в опросах
Вы не можете прикреплять файлы к сообщениям
Вы не можете скачивать файлы