Сегодня идет свободное скачивание без начисления Download

Доктор Франсуаза Гайян / Docteur Francoise Gailland (1975) DVDRip

Ответить на тему
 
Автор
Сообщение

UndegraundMen ®

Стаж: 4 года 9 месяцев

Сообщений: 26429

Торрент-статистика

Пост 06-Дек-2013 11:00

[Цитировать]

Доктор Франсуаза Гайян / Docteur Francoise Gailland (1975) DVDRip- Год выпуска: 1975
Производство: Франция
Жанр: Драма
Описание фильма:
Франсуаза Гайан - врач по призванию. Она всю свою жизнь посвятила пациентам. Для нее нет безнадежных больных. Дни и ночи Франсуаза проводит в больнице, и только короткие минуты она посвящает своему любовнику. Но ее двое взрослых детей страдают от двойственных отношений родителей: мать с отцом живут вместе, но больше не любят друг друга. В один прекрасный день во время очередного медосмотра она узнает, что у нее рак легких…
Режиссер: Жан-Луи Бертучелли
Актеры: Анни Жирардо, Жан-Пьер Кассель, Франсуа Перье, Изабель Юппер, Уильям Корин, Сюзанн Флон, Анук Фержак, Мишель Сюбор, Жозефина Чаплин, Андре Фалькон
Продолжительность: 01:33:34
Качество видео: DVDRip
Перевод: Дублированный (Мосфильм)
Русские форсированные субтитры - для сцен без дубляжа, вырезанных в советском прокате

Дата мировой премьеры: 14 января 1976
Видеокодек: Xvid
Битрейт видео: ~2022 kb/s
Размер кадра: 672x400
Аудиокодек: AC3 1.0
Битрейт аудио: 192 kb/s
Сэмпл: Ссылка

MediaInfo:

Общее
Полное имя : C:Торренты\Доктор Франсуаза Гайан.1975.DVDRip.avi
Формат : AVI
Формат/Информация : Audio Video Interleave
Размер файла : 1,45 Гбайт
Продолжительность : 1 ч. 33 м.
Общий поток : 2224 Кбит/сек
Программа кодирования : VirtualDubMod 1.5.10.3 (build 2550/release)
Библиотека кодирования : VirtualDubMod build 2550/release
Видео
Идентификатор : 0
Формат : MPEG-4 Visual
Профиль формата : Advanced [email protected]
Параметр BVOP формата : 1
Параметр QPel формата : Нет
Параметр GMC формата : Без точки перехода
Параметр матрицы формата : Выборочная
Идентификатор кодека : XVID
Идентификатор кодека/Подсказка : XviD
Продолжительность : 1 ч. 33 м.
Битрейт : 2022 Кбит/сек
Ширина : 672 пикселя
Высота : 400 пикселей
Соотношение сторон : 1,680
Частота кадров : 25,000 кадров/сек
Цветовое пространство : YUV
Субдискретизация насыщенности : 4:2:0
Битовая глубина : 8 бит
Тип развёртки : Прогрессивная
Метод сжатия : С потерями
Бит/(Пиксели*Кадры) : 0.301
Размер потока : 1,32 Гбайт (91%)
Библиотека кодирования : XviD 65
Аудио
Идентификатор : 1
Формат : AC-3
Формат/Информация : Audio Coding 3
Расширение режима : CM (complete main)
Параметр Endianness формата : Big
Идентификатор кодека : 2000
Продолжительность : 1 ч. 33 м.
Вид битрейта : Постоянный
Битрейт : 192 Кбит/сек
Каналы : 1 канал
Расположение каналов : Front: C
Частота : 48,0 КГц
Битовая глубина : 16 бит
Метод сжатия : С потерями
Размер потока : 128 Мбайт (9%)
Выравнивание : Разделение по промежуткам
Продолжительность промежутка : 40 мс. (1,00 видеокадр)
Время предзагрузки промежутка : 500 мс.
Скриншоты:          Время раздачи: с 10.00 до 22.00Незабываем благодарить релизёров
Вне форума [Профиль] [ЛС]
Похожие темы
Форум Тема Автор Торрент Отв. Посл. сообщение
./templates/default/images/folder_dl.gif Медицина и Здоровье Г.Л.Вышковский (ред.) | Регистр лекарственных средств России РЛС Доктор: Хирургия и интенсивная терапия [2013] [PDF] UndegraundMen
0 | 1

0 | 371

0

2013-03-16 20:23
UndegraundMen Последнее
./templates/default/images/folder_dl.gif Медицина и Здоровье В.Ковалев | 1000 советов опытного доктора [2010] [PDF] UndegraundMen
0 | 1

0 | 447

4

2013-03-21 11:59
UndegraundMen Последнее
./templates/default/images/folder_dl.gif Медицина и Здоровье Виктор Ковалев | 1000 советов опытного доктора. Как помочь себе и близким в экстремальных ситуациях [2010] [FB2] UndegraundMen
1 | 0

0 | 461

5

2013-03-27 19:55
UndegraundMen Последнее
./templates/default/images/folder_dl.gif Медицина и Здоровье Доктор Адаптор | Золотые правила очищения организма за 14 дней [2010] [FB2] UndegraundMen
0 | 1

0 | 278

4

2013-04-16 00:00
UndegraundMen Последнее
./templates/default/images/folder_dl.gif Медицина и Здоровье Ю.Николаева | Домашний доктор на подоконнике. От всех болезней [2011] [PDF] UndegraundMen
0 | 1

0 | 241

1

2013-04-24 00:04
UndegraundMen Последнее
./templates/default/images/folder_dl.gif Медицина и Здоровье Юлия Николаева | Домашний доктор на подоконнике. От всех болезней [2011] [FB2] UndegraundMen
0 | 1

0 | 228

1

2013-05-07 00:01
UndegraundMen Последнее
./templates/default/images/folder_dl.gif Медицина и Здоровье Эксмо | Справочник семейного доктора [2012] [FB2] UndegraundMen
1 | 0

0 | 790

4

2013-07-12 19:01
UndegraundMen Последнее
./templates/default/images/folder_dl.gif Медицина и Здоровье Лидия Ионова | Здоровые привычки. Диета доктора Ионовой [2013] [FB2] UndegraundMen
1 | 0

0 | 504

3

2013-08-04 10:39
UndegraundMen Последнее
./templates/default/images/folder_dl.gif Медицина и Здоровье Е. Г. Капранова | Зверобой – лучший доктор от 100 болезней [2010] [PDF] UndegraundMen
0 | 1

0 | 622

4

2013-08-27 11:04
UndegraundMen Последнее
./templates/default/images/folder_dl.gif Медицина и Здоровье Сергей Кашин (сост.) | Ананас, папайя, финики, хурма, манго, бананы, инжир и барбарис. Чудо-доктор от 100 болезней (2014) [PDF] Omen
0 | 1

0 | 448

6

2014-10-02 10:17
Omen Последнее
Показать сообщения:    
Ответить на тему

Текущее время: Сегодня 15:14

Часовой пояс: GMT + 3



Вы не можете начинать темы
Вы не можете отвечать на сообщения
Вы не можете редактировать свои сообщения
Вы не можете удалять свои сообщения
Вы не можете голосовать в опросах
Вы не можете прикреплять файлы к сообщениям
Вы не можете скачивать файлы