Сегодня идет свободное скачивание без начисления Download

Храм Шаолинь 3: Боевые искусства Шаолиня / Martial arts of Shaolin / Nan bei Shao Lin (Лю Чя-Лян)(Боевик.1985) BDRip

Ответить на тему
 
Автор
Сообщение

KirovSOFT ®

Пол:

Стаж: 4 года 8 месяцев

Сообщений: 1581

Откуда: Кировская область -Оричи

Торрент-статистика

Пост 10-Дек-2013 21:51

[Цитировать]

Храм Шаолинь 3: Боевые искусства Шаолиня / Martial arts of Shaolin / Nan bei Shao Lin- Год выпуска: 1985
Производство: Гонконг, Китай
Жанр: Боевик
Описание фильма:
Жи Минг, монах из северного Храма Шаолиня узнает, что жестокий правитель, который убил его родителей, устраивает празднество по случаю своего дня рождения. Планируя отомстить диктатору, монах находит еще двух помощников из южного Шаолиня...
Режиссер: Лю Чя-Лян
Актеры: Джет Ли, Квингфу Пан, Ху Джиан Кванг, Чау-Инь Вон, Чэн-Хой Ю, Хай Ю, Цзяньвэн Чжан
Продолжительность: 01:33:51
Качество видео: DVDRip
Перевод: Двуголосый закадровый, профессиональный

Дата мировой премьеры: 1 марта 1986
Видеокодек: DivX 5
Битрейт видео: 25.00fps 1589Kbps
Размер кадра: 720x336
Качество видео: DVDRip
Аудиокодек: Audio: Dolby AC3 48000Hz stereo 192Kbps [Audio 1]
Audio: Dolby AC3 48000Hz stereo 192Kbps [Audio 2]
Audio: MPEG Audio Layer 3 48000Hz stereo 104Kbps [Audio 3]
Перевод: Многоголосый
Звуковые дорожки: Многоголосый закадровый перевод./ Оригинал./ Английский.

MediaInfo:

Общее
Полное имя : C:Торренты\Храм Шаолинь 3.1985.BDRip.avi
Формат : AVI
Формат/Информация : Audio Video Interleave
Размер файла : 1,45 Гбайт
Продолжительность : 1 ч. 33 м.
Общий поток : 2211 Кбит/сек
Программа кодирования : VirtualDubMod 1.5.10.3 (build 2550/release)
Библиотека кодирования : VirtualDubMod build 2550/release
Видео
Идентификатор : 0
Формат : MPEG-4 Visual
Профиль формата : Advanced [email protected]
Параметр BVOP формата : 1
Параметр QPel формата : Нет
Параметр GMC формата : Без точки перехода
Параметр матрицы формата : Выборочная
Идентификатор кодека : XVID
Идентификатор кодека/Подсказка : XviD
Продолжительность : 1 ч. 33 м.
Битрейт : 2010 Кбит/сек
Ширина : 720 пикселей
Высота : 304 пикселя
Соотношение сторон : 2,35:1
Частота кадров : 23,976 кадра/сек
Цветовое пространство : YUV
Субдискретизация насыщенности : 4:2:0
Битовая глубина : 8 бит
Тип развёртки : Прогрессивная
Метод сжатия : С потерями
Бит/(Пиксели*Кадры) : 0.383
Размер потока : 1,32 Гбайт (91%)
Библиотека кодирования : XviD 73
Аудио
Идентификатор : 1
Формат : AC-3
Формат/Информация : Audio Coding 3
Расширение режима : CM (complete main)
Параметр Endianness формата : Big
Идентификатор кодека : 2000
Продолжительность : 1 ч. 33 м.
Вид битрейта : Постоянный
Битрейт : 192 Кбит/сек
Каналы : 2 канала
Расположение каналов : Front: L R
Частота : 48,0 КГц
Битовая глубина : 16 бит
Метод сжатия : С потерями
Размер потока : 129 Мбайт (9%)
Выравнивание : Разделение по промежуткам
Продолжительность промежутка : 42 мс. (1,00 видеокадр)
Время предзагрузки промежутка : 500 мс.
         

_________________
Вне форума [Профиль] [ЛС]
Показать сообщения:    
Ответить на тему

Текущее время: Сегодня 00:21

Часовой пояс: GMT + 3



Вы не можете начинать темы
Вы не можете отвечать на сообщения
Вы не можете редактировать свои сообщения
Вы не можете удалять свои сообщения
Вы не можете голосовать в опросах
Вы не можете прикреплять файлы к сообщениям
Вы не можете скачивать файлы