Сегодня идет свободное скачивание без начисления Download

Чужие среди нас / They Live (Джон Карпентер)(Ужасы, Фантастика, Боевик, Триллер.1988) BDRip [H.264/720p-LQ] [Hi10P]

Ответить на тему
 
Автор
Сообщение

KirovSOFT ®

Пол:

Стаж: 4 года 8 месяцев

Сообщений: 1581

Откуда: Кировская область -Оричи

Торрент-статистика

Пост 10-Дек-2013 22:16

[Цитировать]

Чужие среди нас / They Live - Год выпуска: 1988
Жанр: Ужасы, Фантастика, Боевик, Триллер
Описание фильма: Однажды простой рабочий-строитель Нейда, которому не очень везёт в жизни, находит необычные солнечные очки. Надев их, он получает возможность увидеть мир таким, какой он есть.
Реальность пугает! Оказывается, правительство и средства массовой информации бомбардируют людей скрытыми сообщениями, воздействующими на уровне подсознания: «Спите!», «Не давайте волю воображению», «Подчиняйтесь властям».
А что еще страшнее, Нейда увидел истинное обличье многих политиков и важных членов общества! Они и не люди вовсе, а безобразные и злые инопланетяне с планеты Андромеда. Их миссия на Земле - проводить массовую кампанию по подчинению землян своей воле и держать людей в неведении...
Нейда должен найти людей, которые, как и он, знают об истинном положении вещей (кто еще мог изготовить эти чудесные очки?), и присоединиться к их движению сопротивления, чтобы бороться!
Режиссер: Джон Карпентер
Актеры: Родди Пайпер, Кит Дэвид, Мег Фостер, Джордж «Бак» Флауэр, Питер Джейсон, Рэймонд Сейнт-Жак, Джейсон Робардс III, Джон Лоуренс, Сьюзэн Барнс, Сай Ричардсон
Качество видео: BDRip
Продолжительность: 01:34:21
Перевод: Профессиональный (многоголосый закадровый), Авторский (одноголосый закадровый)x2
Оригинальная аудио дорожка: Английская
Язык субтитров: Русский
Вид субтитров: Вшитые

Основной файл весит 1,52гб с одной звуковой дорожкой!
Формат: MKV
Видео: MPEG-4 AVC/H.264, 1280x544(2,35:1), 24,000fps, 1816 Кbps, 0.109bit/pixel
Аудио 1: MVO Russian, AC3, 6ch, 48 kHz, 448 kbps, (Многоголосый - CP Digital)
Аудио 2: AVO Russian, AC3, 6ch, 48 kHz, 448 kbps, (Одноголосый - Живов) - Отдельным файлом
Аудио 3: AVO Russian, AC3, 6ch, 48 kHz, 448 kbps, (Одноголосый - Горчаков) - Отдельным файлом
Аудио 4: English, AC3, 6ch, 48 kHz, 448 kbps, (Оригинал) - Отдельным файлом

MediaInfo

Общее
Полное имя : Чужие среди нас (1988) BDRip-AVC.mkv
Формат : Matroska
Версия формата : Version 4 / Version 2
Размер файла : 2,41 Гбайт
Продолжительность : 1 ч. 34 м.
Общий поток : 3655 Кбит/сек
Название фильма : Чужие среди нас / They Live (1988) BDRip-AVC (Sinteros)
Программа кодирования : mkvmerge v6.6.0 ('The Edge Of The In Between') built on Dec 1 2013 17:55:00
Библиотека кодирования : libebml v1.3.0 + libmatroska v1.4.1
Attachment : Yes
Видео
Идентификатор : 1
Формат : AVC
Формат/Информация : Advanced Video Codec
Профиль формата : High [url=mailto:[email protected]][email protected][/url]
Параметр CABAC формата : Да
Параметр ReFrames формата : 11 кадров
Идентификатор кодека : V_MPEG4/ISO/AVC
Продолжительность : 1 ч. 34 м.
Битрейт : 1790 Кбит/сек
Ширина : 1280 пикселей
Высота : 544 пикселя
Соотношение сторон : 2,35:1
Режим частоты кадров : Постоянный
Частота кадров : 24,000 кадра/сек
Цветовое пространство : YUV
Субдискретизация насыщенности : 4:2:0
Битовая глубина : 10 бит
Тип развёртки : Прогрессивная
Бит/(Пиксели*Кадры) : 0.107
Размер потока : 1,18 Гбайт (49%)
Заголовок : MPEG-4 AVC/H.264, 1280x544(2,35:1), 24,000fps, 1816 Кbps, 0.109bit/pixel
Библиотека кодирования : x264 core 133 r2334 a3ac64b
Настройки программы : cabac=1 / ref=11 / deblock=1:-1:-1 / analyse=0x3:0x133 / me=tesa / subme=10 / psy=1 / psy_rd=1.00:0.15 / mixed_ref=1 / me_range=24 / chroma_me=1 / trellis=2 / 8x8dct=1 / cqm=0 / deadzone=21,11 / fast_pskip=1 / chroma_qp_offset=-3 / threads=12 / lookahead_threads=1 / sliced_threads=0 / nr=0 / decimate=1 / interlaced=0 / bluray_compat=0 / constrained_intra=0 / bframes=6 / b_pyramid=2 / b_adapt=2 / b_bias=0 / direct=3 / weightb=1 / open_gop=0 / weightp=2 / keyint=250 / keyint_min=23 / scenecut=40 / intra_refresh=0 / rc_lookahead=60 / rc=crf / mbtree=1 / crf=19.0 / qcomp=0.60 / qpmin=0 / qpmax=81 / qpstep=4 / ip_ratio=1.40 / aq=1:1.00
Язык : English
Default : Да
Forced : Нет
Аудио #1
Идентификатор : 2
Формат : AC-3
Формат/Информация : Audio Coding 3
Расширение режима : CM (complete main)
Параметр Endianness формата : Big
Идентификатор кодека : A_AC3
Продолжительность : 1 ч. 34 м.
Вид битрейта : Постоянный
Битрейт : 448 Кбит/сек
Каналы : 6 каналов
Расположение каналов : Front: L C R, Side: L R, LFE
Частота : 48,0 КГц
Битовая глубина : 16 бит
Метод сжатия : С потерями
Задержка видео : 12 мс.
Размер потока : 302 Мбайт (12%)
Заголовок : MVO Russian, AC3, 6ch, 48 kHz, 448 kbps, (Многоголосый - CP Digital)
Язык : Russian
Default : Да
Forced : Нет
Аудио #2 - Отдельным файлом
Идентификатор : 3
Формат : AC-3
Формат/Информация : Audio Coding 3
Расширение режима : CM (complete main)
Параметр Endianness формата : Big
Идентификатор кодека : A_AC3
Продолжительность : 1 ч. 34 м.
Вид битрейта : Постоянный
Битрейт : 448 Кбит/сек
Каналы : 6 каналов
Расположение каналов : Front: L C R, Side: L R, LFE
Частота : 48,0 КГц
Битовая глубина : 16 бит
Метод сжатия : С потерями
Размер потока : 302 Мбайт (12%)
Заголовок : AVO Russian, AC3, 6ch, 48 kHz, 448 kbps, (Одноголосый - Живов) - Отдельным файлом
Язык : Russian
Default : Нет
Forced : Нет
Аудио #3 - Отдельным файлом
Идентификатор : 4
Формат : AC-3
Формат/Информация : Audio Coding 3
Расширение режима : CM (complete main)
Параметр Endianness формата : Big
Идентификатор кодека : A_AC3
Продолжительность : 1 ч. 34 м.
Вид битрейта : Постоянный
Битрейт : 448 Кбит/сек
Каналы : 6 каналов
Расположение каналов : Front: L C R, Side: L R, LFE
Частота : 48,0 КГц
Битовая глубина : 16 бит
Метод сжатия : С потерями
Размер потока : 302 Мбайт (12%)
Заголовок : AVO Russian, AC3, 6ch, 48 kHz, 448 kbps, (Одноголосый - Горчаков) - Отдельным файлом
Язык : Russian
Default : Нет
Forced : Нет
Аудио #4 - Отдельным файлом
Идентификатор : 5
Формат : AC-3
Формат/Информация : Audio Coding 3
Расширение режима : CM (complete main)
Параметр Endianness формата : Big
Идентификатор кодека : A_AC3
Продолжительность : 1 ч. 34 м.
Вид битрейта : Постоянный
Битрейт : 448 Кбит/сек
Каналы : 6 каналов
Расположение каналов : Front: L C R, Side: L R, LFE
Частота : 48,0 КГц
Битовая глубина : 16 бит
Метод сжатия : С потерями
Размер потока : 302 Мбайт (12%)
Заголовок : English, AC3, 6ch, 48 kHz, 448 kbps, (Оригинал) - Отдельным файлом
Язык : English
Default : Нет
Forced : Нет
Текст
Идентификатор : 6
Формат : PGS
Режим смешивания : zlib
Идентификатор кодека : S_HDMV/PGS
Идентификатор кодека/Информация : The same subtitle format used on BDs/HD-DVDs
Язык : Russian
Default : Нет
Forced : Нет
Примечание: Рип в High 10 Profile, в настоящее время не поддерживается большинством аппаратных проигрывателей, поэтому предназначен исключительно для воспроизведения на ПК.
Для корректного воспроизведения может потребоваться обновление ПО.
Скриншоты:
         
         

_________________
Вне форума [Профиль] [ЛС]
Показать сообщения:    
Ответить на тему

Текущее время: Сегодня 02:55

Часовой пояс: GMT + 3



Вы не можете начинать темы
Вы не можете отвечать на сообщения
Вы не можете редактировать свои сообщения
Вы не можете удалять свои сообщения
Вы не можете голосовать в опросах
Вы не можете прикреплять файлы к сообщениям
Вы не можете скачивать файлы