Сегодня идет свободное скачивание без начисления Download

Зло / Absence of the Good (Джон Флинн)(Триллер.1999) DVDRip

Ответить на тему
 
Автор
Сообщение

KirovSOFT ®

Пол:

Стаж: 4 года 8 месяцев

Сообщений: 1581

Откуда: Кировская область -Оричи

Торрент-статистика

Пост 10-Дек-2013 22:22

[Цитировать]

Зло / Absence of the Good (1999) DVDRip- Год выпуска: 1999
Производство: США
Жанр: Триллер
Описание фильма:
Только священник и служитель закона по-настоящему знают, что такое зло. Потеряв маленького сына, полицейский Калеб решил найти спасение в своей работе. Но из темноты скорби он сразу погружается в черную бездну самых жестоких и бессмысленных убийств. Непредсказуемый маньяк уничтожает в его городе целые семьи, каждый раз оставляя после себя изуродованные трупы и неразрешимые загадки...
Режиссер: Джон Флинн
Актеры: Стивен Болдуин, Тайн Дейли, Элизабет Барондес, Брайан Ли Боак, Дженнифер Бакалев, Роджер Каллард, Далин Кристиансен, Лесли Фера, Неблис Франсуа, Эндрю Фьюгейт
Продолжительность: 01:34:27
Качество видео: DVDRip
Перевод: Двуголосый закадровый, профессиональный

Дата мировой премьеры: 15 октября 1999
Дата выхода DVD релиза: 20 января 2000, «Columbia/Sony»
Видеокодек: Xvid
Битрейт видео: ~1677 kb/s
Размер кадра: 720х400
Аудиокодек: AC3 5.1
Битрейт аудио: 384 kb/s
Сэмпл: Ссылка

MediaInfo:

Общее
Полное имя : C:Торренты\Зло.1999.DVDRip.avi
Формат : AVI
Формат/Информация : Audio Video Interleave
Размер файла : 1,37 Гбайт
Продолжительность : 1 ч. 34 м.
Общий поток : 2071 Кбит/сек
Программа кодирования : VirtualDubModRus 1.5.10.2 (build 2542/release)
Библиотека кодирования : VirtualDubMod build 2542/release
Видео
Идентификатор : 0
Формат : MPEG-4 Visual
Профиль формата : Advanced [email protected]
Параметр BVOP формата : 2
Параметр QPel формата : Нет
Параметр GMC формата : Без точки перехода
Параметр матрицы формата : Default (MPEG)
Идентификатор кодека : XVID
Идентификатор кодека/Подсказка : XviD
Продолжительность : 1 ч. 34 м.
Битрейт : 1677 Кбит/сек
Ширина : 720 пикселей
Высота : 400 пикселей
Соотношение сторон : 16:9
Частота кадров : 25,000 кадров/сек
Цветовое пространство : YUV
Субдискретизация насыщенности : 4:2:0
Битовая глубина : 8 бит
Тип развёртки : Прогрессивная
Метод сжатия : С потерями
Бит/(Пиксели*Кадры) : 0.233
Размер потока : 1,11 Гбайт (81%)
Библиотека кодирования : XviD 1.2.1 (UTC 2008-12-04)
Аудио
Идентификатор : 1
Формат : AC-3
Формат/Информация : Audio Coding 3
Расширение режима : CM (complete main)
Параметр Endianness формата : Big
Идентификатор кодека : 2000
Продолжительность : 1 ч. 34 м.
Вид битрейта : Постоянный
Битрейт : 384 Кбит/сек
Каналы : 6 каналов
Original Channel count : 5 каналов
Расположение каналов : Front: L C R, Side: L R
Частота : 48,0 КГц
Битовая глубина : 16 бит
Метод сжатия : С потерями
Размер потока : 259 Мбайт (19%)
Выравнивание : Разделение по промежуткам
Продолжительность промежутка : 40 мс. (1,00 видеокадр)
Время предзагрузки промежутка : 500 мс.
         

_________________
Вне форума [Профиль] [ЛС]
Показать сообщения:    
Ответить на тему

Текущее время: Сегодня 13:31

Часовой пояс: GMT + 3



Вы не можете начинать темы
Вы не можете отвечать на сообщения
Вы не можете редактировать свои сообщения
Вы не можете удалять свои сообщения
Вы не можете голосовать в опросах
Вы не можете прикреплять файлы к сообщениям
Вы не можете скачивать файлы