Сегодня идет свободное скачивание без начисления Download

Парк Юрского периода 2: Затерянный мир / The Lost World: Jurassic Park (Стивен Спилберг)(боевик, приключения, фантастика, триллер1997) BDRip

Ответить на тему
 
Автор
Сообщение

KirovSOFT ®

Пол:

Стаж: 4 года 8 месяцев

Сообщений: 1581

Откуда: Кировская область -Оричи

Торрент-статистика

Пост 10-Дек-2013 22:42

[Цитировать]

Парк Юрского периода 2: Затерянный мир / The Lost World: Jurassic Park - Год выпуска: 1997
Производство: США | Universal Pictures
Жанр: боевик, приключения, фантастика, триллер
Перевод: Профессиональный (многоголосый закадровый), «Пифагор»
Cубтитры: нет-Режиссер: Стивен Спилберг
Актеры: Джефф Голдблюм, Джулианна Мур, Пит Постлетуэйт, Ричард Аттенборо, Винс Вон, Арлисс Ховард, Ванесса Ли Честер, Петер Стормаре, Харви Джейсон, Ричард Шифф
Описание фильма: События этого фильма разворачиваются через четыре года после того, что произошло в «Парке Юрского периода». На близлежащем острове динозавры выжили и адаптировались к дикой природе. Но вот находится Некто, кто хочет перевезти их на материк и заработать на этом, не понимая, какими могут быть последствия, и посылает на остров своих людей.
Джон Хэммонд, который потерял контроль над своей компанией, считает, что у него появился шанс исправить свои прошлые ошибки. Он, в свою очередь, снаряжает экспедицию во главе с Яном Малкольмом, чтобы появиться там до высадки наемников.
В результате происходящих событий две эти конфликтующие группы вынуждены объединиться перед лицом смертельной опасности. И, как потом выясняется, времени им отпущено совсем немного.
- -
Продолжительность: 02:08:40
Качество: BDRip (источник: Blu-ray / 1080p)
Формат: AVI
Видео: MPEG4, XviD, 704x384 (16:9), 23.976 fps, 1 970 Kbps (0.304 bit/pixel)
Аудио: AC-3, 48.0 KHz, 6 ch, 448 Kbps, CBR

MediaInfo

General
Complete name : Park.Yurskogo.perioda.2.Zateryannyj.mir.1997.RUS.BDRip.XviD.AC3.-HQCLUB.avi
Format : AVI
Format/Info : Audio Video Interleave
Format profile : OpenDML
File size : 2.18 GiB
Duration : 2h 8mn
Overall bit rate : 2 430 Kbps
Movie name : The Lost World: Jurassic Park (1997) BDRip
Director : DaniLch
Genre : Action/Adventure/Sci-Fi/Thriller
Writing application : VirtualDubMod 1.5.10.2 (build 2542/release)
Video
ID : 0
Format : MPEG-4 Visual
Format profile : Advanced [email protected]
Format settings, BVOP : Yes
Format settings, QPel : No
Format settings, GMC : No warppoints
Format settings, Matrix : Custom
Codec ID : XVID
Codec ID/Hint : XviD
Duration : 2h 8mn
Bit rate : 1 970 Kbps
Width : 704 pixels
Height : 384 pixels
Display aspect ratio : 16:9
Frame rate : 23.976 fps
Color space : YUV
Chroma subsampling : 4:2:0
Bit depth : 8 bits
Scan type : Progressive
Bits/(Pixel*Frame) : 0.304
Stream size : 1.77 GiB (81%)
Writing library : XviD 64
Audio
ID : 1
Format : AC-3
Format/Info : Audio Coding 3
Mode extension : CM (complete main)
Codec ID : 2000
Duration : 2h 8mn
Bit rate mode : Constant
Bit rate : 448 Kbps
Channel(s) : 6 channels
Channel positions : Front: L C R, Side: L R, LFE
Sampling rate : 48.0 KHz
Bit depth : 16 bits
Stream size : 412 MiB (18%)
Alignment : Split accross interleaves
Interleave, duration : 42 ms (1.00 video frame)
Interleave, preload duration : 500 ms
       

_________________
Вне форума [Профиль] [ЛС]
Показать сообщения:    
Ответить на тему

Текущее время: Сегодня 10:56

Часовой пояс: GMT + 3



Вы не можете начинать темы
Вы не можете отвечать на сообщения
Вы не можете редактировать свои сообщения
Вы не можете удалять свои сообщения
Вы не можете голосовать в опросах
Вы не можете прикреплять файлы к сообщениям
Вы не можете скачивать файлы