Сегодня идет свободное скачивание без начисления Download

День зарплаты / Pay Day (1922) SATRip

Ответить на тему
 
Автор
Сообщение

UndegraundMen ®

Стаж: 3 года 9 месяцев

Сообщений: 28329

Торрент-статистика

Пост 10-Дек-2013 23:00

[Цитировать]

День зарплаты / Pay Day (1922) SATRip- Год выпуска: 1922
Жанр: Комедия,короткометражный
Описание фильма:
В этой комедии весело и остроумно рисуется картина невеселой жизни простого американского рабочего - обывателя, затурканного, униженного, обделенного, но ни на что не жалующегося. Каждый день жизни этого жалкого человечка - борьба за существование, жалкие крохи, получаемые на стройке, половину из которых забирает начальство, голодный взгляд маленького человека, лишенного любых прав, ожидающая его дома злая и сварливая жена...
Режиссер: Чарли Чаплин
Актеры: Чарли Чаплин, Филлис Аллен, Макк Суэйн, Эдна Пурвинс, Сид Чаплин, Альберт Остин, Джон Рэнд, Генри Бергман, Аль Эрнест Гарсиа
Продолжительность: 00:22:01
Качество видео: SATRip
Перевод: Одноголосый закадровый

Дата мировой премьеры: 2 апреля 1922
Видеокодек: DivX 5
Битрейт видео: ~1989 kbps avg
Размер кадра: 720x544
Аудиокодек: MP3, 2 ch
Битрейт аудио: 160.00 kbps avg

MediaInfo

Общее
Полное имя : Charlie-Chaplin-Pay-Day-1922-SATRip_Moses.avi
Формат : AVI
Формат/Информация : Audio Video Interleave
Размер файла : 340 Мбайт
Продолжительность : 22 м.
Общий поток : 2159 Кбит/сек
Программа кодирования : VirtualDubMod 1.5.10.2 (build 2540/release)
Библиотека кодирования : VirtualDubMod build 2540/release
Видео
Идентификатор : 0
Формат : MPEG-4 Visual
Параметр BVOP формата : 2
Параметр QPel формата : Нет
Параметр GMC формата : Без точки перехода
Параметр матрицы формата : Default (H.263)
Режим смешивания : Сжатый битовый поток
Идентификатор кодека : DX50
Идентификатор кодека/Подсказка : DivX 5
Продолжительность : 22 м.
Битрейт : 1989 Кбит/сек
Ширина : 720 пикселей
Высота : 544 пикселя
Соотношение сторон : 5:4
Соотношение сторон в оригинале : 4:3
Частота кадров : 25,000 кадров/сек
Цветовое пространство : YUV
Субдискретизация насыщенности : 4:2:0
Битовая глубина : 8 бит
Тип развёртки : Прогрессивная
Метод сжатия : С потерями
Бит/(Пиксели*Кадры) : 0.203
Размер потока : 313 Мбайт (92%)
Библиотека кодирования : DivX 6.8.3-6.8.4 (UTC 2008-06-07)
Аудио
Идентификатор : 1
Формат : MPEG Audio
Версия формата : Version 1
Профиль формата : Layer 3
Режим : Joint stereo
Расширение режима : MS Stereo
Идентификатор кодека : 55
Идентификатор кодека/Подсказка : MP3
Продолжительность : 22 м.
Вид битрейта : Постоянный
Битрейт : 160 Кбит/сек
Каналы : 2 канала
Частота : 48,0 КГц
Метод сжатия : С потерями
Размер потока : 25,2 Мбайт (7%)
Выравнивание : Разделение по промежуткам
Продолжительность промежутка : 40 мс. (1,00 видеокадр)
Время предзагрузки промежутка : 500 мс.
Библиотека кодирования : LAME3.97Ђ
Скриншоты:

Время раздачи: до первых скачавших
Вне форума [Профиль] [ЛС]
Показать сообщения:    
Ответить на тему

Текущее время: Сегодня 20:23

Часовой пояс: GMT + 3



Вы не можете начинать темы
Вы не можете отвечать на сообщения
Вы не можете редактировать свои сообщения
Вы не можете удалять свои сообщения
Вы не можете голосовать в опросах
Вы не можете прикреплять файлы к сообщениям
Вы не можете скачивать файлы