Сегодня идет свободное скачивание без начисления Download

Дом на площади / The House In The Square (1951) DVDRip

Ответить на тему
 
Автор
Сообщение

UndegraundMen ®

Стаж: 3 года 9 месяцев

Сообщений: 28329

Торрент-статистика

Пост 12-Дек-2013 11:01

[Цитировать]

Дом на площади / The House In The Square (1951) DVDRip- Русское название: Дом на площади
Оригинальное название: The House In The Square
Год выпуска: 1951
Страна: Великобритания
Жанр: фэнтези, драма, мелодрама
Перевод: Любительский (одноголосый)
Субтитры: нет
Продолжительность: 01:29:59
Описание фильма: Американский физик Питер Стэндиш живет в Лондоне в старом, унаследованном от предков доме, который почти не изменился с XVIII столетия. Он верит, что каким-то образом он будет перенесен в 1784 год и проживет там часть своей жизни - потому что сведения об этом он нашел, исследуя старые бумаги, найденные им в доме. И вот, однажды, в грозу, он оказывается в 1784 году. Он знает все, что с ним там должно произойти, ибо все это уже было относительно его 20 века. Но вдруг он видит девушку, Хелен, сестру той, на которой должен жениться... Этой девушки не было в тех документах, которые он читал и любовь неожиданно вспыхнувшая, о которой не упоминалось в документах...
Режиссер: Рой Уорд Бейкер
Актеры: Тайрон Пауэр, Энн Блит, Майкл Ренни, Деннис Прайс, Беатрис Кэмпбелл, Кэтлин Байрон, Рэймонд Хантли, Ирен Браун, Рональд Адам, Роберт Аткинс

Видеокодек: XviD
Битрейт видео: ~ 1488 kbps
Размер кадра: 640x464 (1.38:1)
Качество видео: DVDRip
Аудио 1: Русский: 48 kHz, MPEG Layer 3, 2 ch, ~128.00 kbps avg [любительский одноголосый]
Аудио 2: Английский: 48 kHz, MPEG Layer 3, 2 ch, ~128.00 kbps avg [оригинал]

MI

Общее
Полное имя : C:\Dom_na_ploschadi_1951.avi
Формат : AVI
Формат/Информация : Audio Video Interleave
Размер файла : 1,10 Гбайт
Продолжительность : 1 ч. 29 м.
Общий поток : 1758 Кбит/сек
Программа кодирования : VirtualDubMod 1.5.10.2 (build 2540/release)
Библиотека кодирования : VirtualDubMod build 2540/release
Видео
Идентификатор : 0
Формат : MPEG-4 Visual
Профиль формата : Advanced [email protected]
Параметр BVOP формата : 1
Параметр QPel формата : Нет
Параметр GMC формата : Без точки перехода
Параметр матрицы формата : Default (H.263)
Идентификатор кодека : XVID
Идентификатор кодека/Подсказка : XviD
Продолжительность : 1 ч. 29 м.
Битрейт : 1488 Кбит/сек
Ширина : 640 пикселей
Высота : 464 пикселя
Соотношение сторон : 1,379
Частота кадров : 23,976 кадра/сек
Цветовое пространство : YUV
Субдискретизация насыщенности : 4:2:0
Битовая глубина : 8 бит
Тип развёртки : Прогрессивная
Метод сжатия : С потерями
Бит/(Пиксели*Кадры) : 0.209
Размер потока : 958 Мбайт (85%)
Библиотека кодирования : XviD 1.2.0.dev47 (UTC 2006-11-01)
Аудио #1
Идентификатор : 1
Формат : MPEG Audio
Версия формата : Version 1
Профиль формата : Layer 3
Режим : Joint stereo
Расширение режима : MS Stereo
Идентификатор кодека : 55
Идентификатор кодека/Подсказка : MP3
Продолжительность : 1 ч. 29 м.
Вид битрейта : Постоянный
Битрейт : 128 Кбит/сек
Каналы : 2 канала
Частота : 48,0 КГц
Метод сжатия : С потерями
Размер потока : 82,4 Мбайт (7%)
Выравнивание : Соединение по промежуткам
Продолжительность промежутка : 42 мс. (1,00 видеокадр)
Время предзагрузки промежутка : 504 мс.
Аудио #2
Идентификатор : 2
Формат : MPEG Audio
Версия формата : Version 1
Профиль формата : Layer 3
Режим : Joint stereo
Расширение режима : MS Stereo
Идентификатор кодека : 55
Идентификатор кодека/Подсказка : MP3
Продолжительность : 1 ч. 29 м.
Вид битрейта : Постоянный
Битрейт : 128 Кбит/сек
Каналы : 2 канала
Частота : 48,0 КГц
Метод сжатия : С потерями
Размер потока : 82,4 Мбайт (7%)
Выравнивание : Соединение по промежуткам
Продолжительность промежутка : 42 мс. (1,00 видеокадр)
Время предзагрузки промежутка : 504 мс.
Скриншоты:
         
         
Вне форума [Профиль] [ЛС]
Показать сообщения:    
Ответить на тему

Текущее время: Сегодня 20:23

Часовой пояс: GMT + 3



Вы не можете начинать темы
Вы не можете отвечать на сообщения
Вы не можете редактировать свои сообщения
Вы не можете удалять свои сообщения
Вы не можете голосовать в опросах
Вы не можете прикреплять файлы к сообщениям
Вы не можете скачивать файлы