Сегодня идет свободное скачивание без начисления Download

Это случилось с Джейн / It Happened to Jane (1959) DVDRip [H.264]

Ответить на тему
 
Автор
Сообщение

UndegraundMen ®

Стаж: 3 года 9 месяцев

Сообщений: 28329

Торрент-статистика

Пост 16-Дек-2013 11:00

[Цитировать]

Это случилось с Джейн / It Happened to Jane (1959) DVDRip [H.264] -«It could have happened to anyone, but It Happened To Jane!»- Год выпуска: 1959
Жанр: Комедия, Семейный
Производство: США/Arwin Productions
Описание фильма:
Джейн Осгуд, хозяйка фирмы по рассылке живых омаров, волею случая оказывается втянутой в неравную борьбу с владельцем железнодорожной компании Гарри Мэлоуном. Неизвестно, чем бы закончилось дело, если бы не помощь друга детства Джорджа Денэма…
Режиссер: Ричард Квин
Сценарий: Норман Катков, Макс Уилк
Продюсер: Ричард Квин, Мартин Мелчер
Композитор: Джордж Данинг
Актеры: Дорис Дэй, Джек Леммон, Эрни Ковач, Стив Форрест, Тедди Руни, Расс Браун, Паркер Феннелли, Мэри Уикс, Филип Кулидж
Продолжительность: 01:33:38
Качество видео: DVDRip
Перевод: Одноголосый закадровый (binjak)
Субтитры: Отсутствуют

Дата мировой премьеры: 14 июля 1959
Видеокодек: MPEG-4 AVC/H.264
Битрейт видео: ~1903 Кбит/сек
Размер кадра: 720x400
Аудиокодек: AC3 2.0
Битрейт аудио: 192 Кбит/сек

Знаете ли вы, что...

Интересно, что в этом же (1959) году Джек Леммон снялся в легендарном "Some Like It Hot" (В джазе только девушки) в роли Джерри / Дафны.

MediaInfo:

General
Unique ID : 243366159587533085870734169489417229350 (0xB7169E0F3CF581C5805283E27B9CD426)
Complete name : F:\Downloads\Это случилось с Джейн.mkv
Format : Matroska
Format version : Version 4 / Version 2
File size : 1.37 GiB
Duration : 1h 33mn
Overall bit rate : 2 097 Kbps
Encoded date : UTC 2013-12-14 21:41:03
Writing application : mkvmerge v6.4.1 ('Omega Point') built on Sep 16 2013 22:05:10
Writing library : libebml v1.3.0 + libmatroska v1.4.1
Video
ID : 1
Format : AVC
Format/Info : Advanced Video Codec
Format profile : [url=mailto:[email protected]][email protected][/url]
Format settings, CABAC : Yes
Format settings, ReFrames : 8 frames
Codec ID : V_MPEG4/ISO/AVC
Duration : 1h 33mn
Bit rate : 1 903 Kbps
Width : 720 pixels
Height : 400 pixels
Display aspect ratio : 16:9
Frame rate mode : Constant
Frame rate : 25.000 fps
Color space : YUV
Chroma subsampling : 4:2:0
Bit depth : 8 bits
Scan type : Progressive
Bits/(Pixel*Frame) : 0.264
Stream size : 1.22 GiB (89%)
Title : It Happened To Jane
Writing library : x264 core 130 r2273 b3065e6
Encoding settings : cabac=1 / ref=8 / deblock=1:-1:-1 / analyse=0x3:0x133 / me=umh / subme=9 / psy=1 / psy_rd=1.00:0.10 / mixed_ref=1 / me_range=32 / chroma_me=1 / trellis=2 / 8x8dct=1 / cqm=0 / deadzone=21,11 / fast_pskip=0 / chroma_qp_offset=-3 / threads=6 / lookahead_threads=1 / sliced_threads=0 / nr=0 / decimate=1 / interlaced=0 / bluray_compat=0 / constrained_intra=0 / bframes=3 / b_pyramid=2 / b_adapt=2 / b_bias=0 / direct=3 / weightb=1 / open_gop=0 / weightp=2 / keyint=250 / keyint_min=25 / scenecut=40 / intra_refresh=0 / rc_lookahead=60 / rc=2pass / mbtree=1 / bitrate=1903 / ratetol=1.0 / qcomp=0.60 / qpmin=10 / qpmax=51 / qpstep=4 / cplxblur=20.0 / qblur=0.5 / ip_ratio=1.40 / aq=1:1.00
Language : English
Default : Yes
Forced : No
Audio
ID : 2
Format : AC-3
Format/Info : Audio Coding 3
Mode extension : CM (complete main)
Format settings, Endianness : Big
Codec ID : A_AC3
Duration : 1h 33mn
Bit rate mode : Constant
Bit rate : 192 Kbps
Channel(s) : 2 channels
Channel positions : Front: L R
Sampling rate : 48.0 KHz
Bit depth : 16 bits
Compression mode : Lossy
Stream size : 129 MiB (9%)
Title : Одноголосый закадровый (binjak)
Language : Russian
Default : Yes
Forced : No
Скриншоты:                    Время раздачи: с 13:00 до 01:00 по Москве (выходные круглосуточно), до 10 скачавших
Вне форума [Профиль] [ЛС]
Показать сообщения:    
Ответить на тему

Текущее время: Сегодня 13:30

Часовой пояс: GMT + 3



Вы не можете начинать темы
Вы не можете отвечать на сообщения
Вы не можете редактировать свои сообщения
Вы не можете удалять свои сообщения
Вы не можете голосовать в опросах
Вы не можете прикреплять файлы к сообщениям
Вы не можете скачивать файлы