Сегодня идет свободное скачивание без начисления Download

Красавчик Джонни / Johnny Handsome (Уолтер Хилл / Walter Hill) [1989, триллер, драма, криминал, BDRip] [VO] (М.Яроцкий) + 2x[AVO](А.Гаврилов, В.Горчаков)

Ответить на тему
 
Автор
Сообщение

maxkiller ®

Пол:

Стаж: 3 года 10 месяцев

Сообщений: 282

Торрент-статистика

Пост 18-Дек-2013 00:00

[Цитировать]

Красавчик Джонни / Johnny Handsome

Год выпуска: 1989
Страна: США
Жанр: триллер, драма, криминал
Продолжительность: 01:33:37
Перевод #1: Одноголосный (закадровый)[М.Яроцкий]
Перевод #2: Авторский (одноголосный, закадровый)[Андрей Гаврилов]
Перевод #3: Авторский (одноголосный, закадровый)[Василий Горчаков]
Русские субтитры: нет
Режиссер: Уолтер Хилл / Walter Hill
В ролях: Микки Рурк (John Sedley a.ka. Johnny Handsome, Johnny Mitchell), Эллен Баркин (Sunny Boyd), Элизабет МакГоверн (Donna McCarty), Морган Фриман (Lt. A.Z. Drones), Форест Уитакер (Dr. Steven Fisher), Лэнс Хенриксен (Rafe Garrett), Скотт Уилсон (Mikey Chalmette), Дэвид Шрэмм (Vic Dumask), Ивонн Брайсленд (Sister Luke), Питер Джейсон (Mr. Bonet), Дж.В. Смит (Larry), Аллан Граф (Bob Lemoyne)
Описание: Джон Седли родился с обезображенным лицом, и это вкупе с тяжелым детством предопределило его судьбу - он стал преступником. Во время вооруженного ограбления он и его друг Майки оказались обманутым партнерами. Майки был убит, а Джони пошел в тюрьму, но никого не заложил, рассчитывая выйти на свободу и отомстить.
В тюрьме он при помощи гуманного чернокожего хирурга получает новое, очень даже симпатичное и обаятельное лицо Микки Рурка, и со временем его отпускают по амнистии. Он начинает опасную игру, чтобы поквитаться с предателями.


Качество: BDRip [Исх. Blu-ray Disc]
Формат: AVI
Видео кодек: XviD
Аудио кодек: AC3
Видео: 704x384 (1.83:1), 23.976 fps, XviD build 72 ~1828 kbps avg, 0.28 bit/pixel
Аудио #1: 48 kHz, AC3 Dolby Digital, 2/0 (L,R) ch, ~192 kbps [М.Яроцкий]
Аудио #2: 48 kHz, AC3 Dolby Digital, 2/0 (L,R) ch, ~192 kbps [А.Гаврилов]
Аудио #3: 48 kHz, AC3 Dolby Digital, 2/0 (L,R) ch, ~192 kbps [В.Горчаков]

Релиз:

Автор рипа с авторскими дорогами Юрист с тру --- Спасибо!
За перевод М.Яроцкого благодарим пользователей переулка переводмана.
Цитата:
перевод в подарок на День рождения mihey10 от будулаяроманова!Работа со звуком — Переводман.

MI

General
Complete name : E:\INTERNET\Krasav4ik Djonny.1989.BDRip.[VO](Kyberpunk)+2x[AVO](Gavrilov, Gor4akov).km.avi
Format : AVI
Format/Info : Audio Video Interleave
File size : 1.61 GiB
Duration : 1h 33mn
Overall bit rate : 2 456 Kbps
Writing application : VirtualDubMod 1.5.10.3 (build 2550/release)
Writing library : VirtualDubMod build 2550/release
Video
ID : 0
Format : MPEG-4 Visual
Format profile : Advanced [email protected]
Format settings, BVOP : 1
Format settings, QPel : No
Format settings, GMC : No warppoints
Format settings, Matrix : Custom
Codec ID : XVID
Codec ID/Hint : XviD
Duration : 1h 33mn
Bit rate : 1 829 Kbps
Width : 704 pixels
Height : 384 pixels
Display aspect ratio : 16:9
Frame rate : 23.976 fps
Color space : YUV
Chroma subsampling : 4:2:0
Bit depth : 8 bits
Scan type : Progressive
Compression mode : Lossy
Bits/(Pixel*Frame) : 0.282
Stream size : 1.20 GiB (74%)
Writing library : XviD 72
Audio #1
ID : 1
Format : AC-3
Format/Info : Audio Coding 3
Mode extension : CM (complete main)
Codec ID : 2000
Duration : 1h 33mn
Bit rate mode : Constant
Bit rate : 224 Kbps
Channel(s) : 2 channels
Channel positions : Front: L R
Sampling rate : 48.0 KHz
Bit depth : 16 bits
Compression mode : Lossy
Stream size : 150 MiB (9%)
Alignment : Split accross interleaves
Interleave, duration : 42 ms (1.00 video frame)
Interleave, preload duration : 500 ms
Audio #2
ID : 2
Format : AC-3
Format/Info : Audio Coding 3
Mode extension : CM (complete main)
Codec ID : 2000
Duration : 1h 33mn
Bit rate mode : Constant
Bit rate : 192 Kbps
Channel(s) : 2 channels
Channel positions : Front: L R
Sampling rate : 48.0 KHz
Bit depth : 16 bits
Compression mode : Lossy
Stream size : 129 MiB (8%)
Alignment : Split accross interleaves
Interleave, duration : 42 ms (1.00 video frame)
Interleave, preload duration : 500 ms
Audio #3
ID : 3
Format : AC-3
Format/Info : Audio Coding 3
Mode extension : CM (complete main)
Codec ID : 2000
Duration : 1h 33mn
Bit rate mode : Constant
Bit rate : 192 Kbps
Channel(s) : 2 channels
Channel positions : Front: L R
Sampling rate : 48.0 KHz
Bit depth : 16 bits
Compression mode : Lossy
Stream size : 129 MiB (8%)
Alignment : Split accross interleaves
Interleave, duration : 42 ms (1.00 video frame)
Interleave, preload duration : 500 ms

Скриншоты

                   
-

Знаете ли Вы, что...

Фильм снят по роману Джона Гуди «Три слова Джонни-Красавчика».
-
Вне форума [Профиль] [ЛС]
Показать сообщения:    
Ответить на тему

Текущее время: Сегодня 13:30

Часовой пояс: GMT + 3



Вы не можете начинать темы
Вы не можете отвечать на сообщения
Вы не можете редактировать свои сообщения
Вы не можете удалять свои сообщения
Вы не можете голосовать в опросах
Вы не можете прикреплять файлы к сообщениям
Вы не можете скачивать файлы