Сегодня идет свободное скачивание без начисления Download

Черная мельница / The Black Windmill (1974) DVDRip

Ответить на тему
 
Автор
Сообщение

UndegraundMen ®

Стаж: 3 года 9 месяцев

Сообщений: 28329

Торрент-статистика

Пост 18-Дек-2013 04:46

[Цитировать]

Черная мельница / The Black Windmill (1974) DVDRip- Год выпуска: 1974
Жанр: Детектив, Триллер, Криминал
Описание фильма:
Главный герой — секретный агент британской разведки, смерти которого желают и друзья, и враги. Кейн реализует план страшной мести, когда безжалостные бандиты похищают его маленького сына и требуют за мальчика гигантский выкуп, который должен быть выплачен неограненными алмазами.
Режиссер: Дон Сигел
Актеры: Майкл Кейн, Дональд Плезенс, Дэльфин Сейриг, Клайв Ревилл, Джон Вернон, Джосс Экленд, Джанет Сузман, Кэтрин Шелл, Джозеф О’Конор, Денис Куилли
Продолжительность: 01:41:45
Качество видео: DVDRip
Перевод: Дублированный

Дата мировой премьеры: 17.05.74
Видеокодек: DivX
Битрейт видео: ~1645 Кбит/сек
Размер кадра: 688 x 288
Аудиокодек: AC3 2.0
Битрейт аудио: 192 kb/s CBR
Сэмпл: Ссылка

Mediainfo

Общее
Полное имя : F:\KINO\The_Black_Windmill.1974.avi
Формат : AVI
Формат/Информация : Audio Video Interleave
Размер файла : 1,37 Гбайт
Продолжительность : 1 ч. 41 м.
Общий поток : 1922 Кбит/сек
Программа кодирования : VirtualDubMod 1.5.10.2 (build 2542/release)
Библиотека кодирования : VirtualDubMod build 2542/release
Видео
Идентификатор : 0
Формат : MPEG-4 Visual
Параметр BVOP формата : 1
Параметр QPel формата : Нет
Параметр GMC формата : Без точки перехода
Параметр матрицы формата : Default (H.263)
Режим смешивания : Сжатый битовый поток
Идентификатор кодека : DX50
Идентификатор кодека/Подсказка : DivX 5
Продолжительность : 1 ч. 41 м.
Битрейт : 1645 Кбит/сек
Ширина : 688 пикс.
Высота : 288 пикс.
Соотношение сторон : 2,40:1
Частота кадров : 25,000 кадр/сек
Цветовое пространство : YUV
Подвыборка цветности : 4:2:0
Битовая глубина : 8 бит
Тип развёртки : Прогрессивная
Метод сжатия : С потерями
Бит/(Пиксели*Кадры) : 0.332
Размер потока : 1,17 Гбайт (86%)
Библиотека кодирования : DivX 6.8.3-6.8.4 (UTC 2008-06-07)
Аудио
Идентификатор : 1
Формат : AC-3
Формат/Информация : Audio Coding 3
Расширение режима : CM (complete main)
Идентификатор кодека : 2000
Продолжительность : 1 ч. 41 м.
Вид битрейта : Постоянный
Битрейт : 192 Кбит/сек
Каналы : 2 канала
Расположение каналов : Front: L R
Частота : 48,0 КГц
Битовая глубина : 16 бит
Метод сжатия : С потерями
Размер потока : 140 Мбайт (10%)
Выравнивание : Разделение по промежуткам
Скриншоты:
       
Время раздачи: Пн-Пт с 9:00 до 18:00
Вне форума [Профиль] [ЛС]
Похожие темы
Форум Тема Автор Торрент Отв. Посл. сообщение
./templates/default/images/folder_dl.gif Психология, Тренинг, Саморазвитие Ричард Дэнсон | Черная риторика. Запрещенные приёмы ведения дискуссий (2016) [FB2] [email protected]
1 | 0

0 | 124

4

2016-11-25 18:50
[email protected] Последнее
Показать сообщения:    
Ответить на тему

Текущее время: Сегодня 17:36

Часовой пояс: GMT + 3



Вы не можете начинать темы
Вы не можете отвечать на сообщения
Вы не можете редактировать свои сообщения
Вы не можете удалять свои сообщения
Вы не можете голосовать в опросах
Вы не можете прикреплять файлы к сообщениям
Вы не можете скачивать файлы