Сегодня идет свободное скачивание без начисления Download

Сахара / Sahara (1943) WEB-DL [H.264/720p-LQ]

Ответить на тему
 
Автор
Сообщение

UndegraundMen ®

Стаж: 3 года 9 месяцев

Сообщений: 28329

Торрент-статистика

Пост 19-Дек-2013 23:06

[Цитировать]

Сахара / Sahara (1943) WEB-DL [H.264/720p-LQ]
«THE STAR OF 'CASABLANCA' IN THE WAR'S MIGHTIEST ADVENTURE DRAMA!»
Год выпуска: 1943
Жанр: Драма, Военный
Производство: США-Описание фильма:
Главный герой картины сержант Джо Ганн (Богарт) и его танковый экипаж подбирают после битвы в Северной Африке пять солдат: британца, француза, южноафриканца, итальянского военнопленного и суданского капрала. Они наталкиваются на разрушенный оазис с почти пересохшим источником, и, не успев вдоволь напиться, сразу же занимают оборону, вступая в бой с многократно превосходящим по численности отрядом нацистов, которые полагают, что в оазисе есть вода…-Режиссер: Золтан Корда-Актеры: Хамфри Богарт, Брюс Беннетт, Джей Кэррол Нэйш, Ллойд Бриджес, Рекс Ингрэм, Дэн Дюрьи, Ричард Наджент, Карл Харольд, Пэтрик О'Мур, Луи Мерсье (I), Гай Кингсфорд, Курт Крюгер, Джон Венграф-

Продолжительность: 01:37:40
Качество видео: WEB-DL 720p
Перевод: Профессиональный (многоголосый закадровый), (одноголосый закадровый).
Язык субтитров: английские
Вид субтитров: softsub (SRT*)
- -Дата мировой премьеры: 2 сентября 1943-Видеокодек: MPEG-4 AVC/H.264
Битрейт видео: 4000 kbps
Размер кадра: 988x720
Аудиокодек: AC3
Аудио#1: Russian: 48 kHz, AC3, 2/0 (L,R) ch, 192 kbps |Многоголосый закадровый|
Аудио#2: Russian: 48 kHz, AC3, 2/0 (L,R) ch, 192 kbps |Двухголосый закадровый|
Аудио#3: English: 48 kHz, AAC 2.0 ch, 160 kbps
-

MediaInfo

Complete name : С:\Downloads\Sahara.1943.WEB-DL720p.mkv
Format : Matroska
Format version : Version 2
File size : 3.01 GiB
Duration : 1h 37mn
Overall bit rate : 4 418 Kbps
Movie name : .org
Encoded date : UTC 2013-07-24 17:58:59
Writing application : mkvmerge v5.6.0 ('Kenya Kane') built on Jun 29 2012 15:01:44
Writing library : libebml v1.2.3 + libmatroska v1.3.0
Video
ID : 1
Format : AVC
Format/Info : Advanced Video Codec
Format profile : [url=mailto:[email protected]][email protected][/url]
Format settings, CABAC : No
Format settings, ReFrames : 2 frames
Codec ID : V_MPEG4/ISO/AVC
Duration : 1h 37mn
Width : 988 pixels
Height : 720 pixels
Display aspect ratio : 1.372
Frame rate : 23.976 fps
Color space : YUV
Chroma subsampling : 4:2:0
Bit depth : 8 bits
Scan type : Progressive
Title : Sahara.1943.WEB-DL720p-CtrlHD.
Language : English
Default : Yes
Forced : No
Color primaries : BT.709-5, BT.1361, IEC 61966-2-4, SMPTE RP177
Transfer characteristics : BT.709-5, BT.1361
Matrix coefficients : BT.709-5, BT.1361, IEC 61966-2-4 709, SMPTE RP177
Audio #1
ID : 2
Format : AC-3
Format/Info : Audio Coding 3
Mode extension : CM (complete main)
Format settings, Endianness : Big
Codec ID : A_AC3
Duration : 1h 37mn
Bit rate mode : Constant
Bit rate : 192 Kbps
Channel(s) : 2 channels
Channel positions : Front: L R
Sampling rate : 48.0 KHz
Bit depth : 16 bits
Compression mode : Lossy
Stream size : 134 MiB (4%)
Title : mvo
Language : Russian
Default : Yes
Forced : No
Audio #2
ID : 3
Format : AC-3
Format/Info : Audio Coding 3
Mode extension : CM (complete main)
Format settings, Endianness : Big
Codec ID : A_AC3
Duration : 1h 37mn
Bit rate mode : Constant
Bit rate : 192 Kbps
Channel(s) : 2 channels
Channel positions : Front: L R
Sampling rate : 48.0 KHz
Bit depth : 16 bits
Compression mode : Lossy
Stream size : 134 MiB (4%)
Title : dvo
Language : Russian
Default : No
Forced : No
Audio #3
ID : 4
Format : AAC
Format/Info : Advanced Audio Codec
Format profile : LC
Codec ID : A_AAC
Duration : 1h 37mn
Channel(s) : 2 channels
Channel positions : Front: L R
Sampling rate : 48.0 KHz
Compression mode : Lossy
Language : English
Default : No
Forced : No
Text
ID : 5
Format : UTF-8
Codec ID : S_TEXT/UTF8
Codec ID/Info : UTF-8 Plain Text
Language : English
Default : No
Forced : No
Menu
00:00:00.000 : en:Start
00:01:45.000 : en:"Scram!"
00:05:49.000 : en:Halliday & friends
00:10:24.000 : en:Stuck
00:14:59.000 : en:Tambul & Giuseppe
00:22:44.000 : en:Air Attack
00:32:12.000 : en:Bone dry
00:35:20.000 : en:Sandstorm
00:37:12.000 : en:Bir Acroma
00:38:25.000 : en:Drops of life
00:48:30.000 : en:Mohammedan customs
00:50:25.000 : en:Maestro mechanic
00:51:31.000 : en:Hometowns
00:54:27.000 : en:Headed their way
00:57:31.000 : en:Breaking the prisoner
01:00:35.000 : en:Gunn's plan
01:09:28.000 : en:The enemy approaches
01:11:30.000 : en:First strike
01:13:36.000 : en:White flag
01:17:17.000 : en:Williams
01:19:29.000 : en:Counter-attack
01:20:08.000 : en:"Denounce me, then."
01:22:04.000 : en:"He got the Keinie."
01:25:41.000 : en:Terms of deception
01:28:34.000 : en:Never say die
01:30:56.000 : en:Waco makes it
01:33:47.000 : en:Mass surrender
01:35:27.000 : en:Whittled down

-

Награды


  • Оскар, 1944 год
    Номинации (3):
    Лучшая мужская роль второго плана (Дж. Кэролл Нейш)
    Лучшая работа оператора (ч/б фильмы)
    Лучший звук

-Скриншоты:        
       
- Время раздачи: 24/7 (до 5 скачавших)
Вне форума [Профиль] [ЛС]
Показать сообщения:    
Ответить на тему

Текущее время: Сегодня 01:15

Часовой пояс: GMT + 3



Вы не можете начинать темы
Вы не можете отвечать на сообщения
Вы не можете редактировать свои сообщения
Вы не можете удалять свои сообщения
Вы не можете голосовать в опросах
Вы не можете прикреплять файлы к сообщениям
Вы не можете скачивать файлы