Сегодня идет свободное скачивание без начисления Download

Эммануэль / Emmanuelle (1974) BDRemux [1080p]

Ответить на тему
 
Автор
Сообщение

UndegraundMen ®

Стаж: 3 года 9 месяцев

Сообщений: 28329

Торрент-статистика

Пост 22-Дек-2013 16:09

[Цитировать]

Эммануэль / Emmanuelle (1974) BDRemux- Год выпуска: 1974
Жанр: Мелодрама, Эротика
Производство: Франция
Режиссер: Жюст Жэкин
Актеры: Сильвия Кристель, Ален Кюни, Марика Грин, Даниэль Сарки, Жанна Коллетен, Кристин Буассон, Саманта, Габриэль Бриан, Грегори
Описание фильма:
Первый фильм о жрице любви Эммануэль. Сюжет служит канвой для описания сексуальных похождений героини в Юго-Восточной Азии.
Муж Эммануэль, работающий в посольстве, поощряет в ней стремление к раскрепощенности в сексе, благо весь дипломатический корпус, особенно женщины, изнывают от скуки. За её воспитание берется уже пожилой специалист. Эммануэль делает большие успехи в искусстве любви.-

Дата мировой премьеры: 26 июня 1974-Продолжительность: 01:34:13
Перевод: Двухголосый закадровый, авторский одноголосый закадровый
Субтитры: Вшитые отключаемые
Язык субтитров: Русский, Английский
Качество видео: BDRemux
Контейнер: MKV
Видео: MPEG4-AVC (h264), 1920x1080, ~ 35012 kbps, 24.000 fps
Аудио 1: Русский AC3 2.0, 256 kbps - (Двухголосый закадровый, Twister)
Аудио 2: Русский DTS 2.0, 755 kbps - (Авторский одноголосый закадровый, Ю.Живов)
Аудио 3: Украинский AC3 2.0, 192 kbps - (Двухголосый закадровый)
Аудио 4: Английский DTS-HD MA 2.0, 914 kbps (DTS Core: 2.0, 768 kbps,16-bit)
Аудио 5: Французский DTS-HD MA 2.0, 936 kbps (DTS Core: 2.0, 768 kbps,16-bit)

MediaInfo

Complete name: Emmanuelle.(1974).BDRemux.mkv
Format : Matroska
Format version : Version 2
File size : 25.1 GiB
Duration : 1h 34mn
Overall bit rate mode : Variable
Overall bit rate : 38.1 Mbps
Movie name : Emmanuelle.(1974).BDRemux
Encoded date : UTC 2013-12-21 08:50:04
Writing application : mkvmerge v5.7.0 ('The Whirlwind') built on Jul 8 2012 20:08:51
Writing library : libebml v1.2.3 + libmatroska v1.3.0
Video
ID : 1
Format : AVC
Format/Info : Advanced Video Codec
Format profile : [url=mailto:[email protected]][email protected][/url]
Format settings, CABAC : Yes
Format settings, ReFrames : 2 frames
Codec ID : V_MPEG4/ISO/AVC
Duration : 1h 34mn
Bit rate mode : Variable
Width : 1 920 pixels
Height : 1 080 pixels
Display aspect ratio : 16:9
Frame rate mode : Constant
Frame rate : 24.000 fps
Color space : YUV
Chroma subsampling : 4:2:0
Bit depth : 8 bits
Scan type : Progressive
Title : Emmanuelle.(1974).BDRemux
Language : French
Default : Yes
Forced : No
Audio #1
ID : 2
Format : AC-3
Format/Info : Audio Coding 3
Mode extension : CM (complete main)
Format settings, Endianness : Big
Codec ID : A_AC3
Duration : 1h 34mn
Bit rate mode : Constant
Bit rate : 256 Kbps
Channel(s) : 2 channels
Channel positions : Front: L R
Sampling rate : 48.0 KHz
Bit depth : 16 bits
Compression mode : Lossy
Stream size : 173 MiB (1%)
Title : AC3 2.0 @ 256 kbps - DVO, Twister
Language : Russian
Default : Yes
Forced : No
Audio #2
ID : 3
Format : DTS
Format/Info : Digital Theater Systems
Mode : 16
Format settings, Endianness : Big
Codec ID : A_DTS
Duration : 1h 34mn
Bit rate mode : Constant
Bit rate : 755 Kbps
Channel(s) : 2 channels
Channel positions : Front: L R
Sampling rate : 48.0 KHz
Bit depth : 24 bits
Compression mode : Lossy
Stream size : 508 MiB (2%)
Title : DTS 2.0 @ 768 kbps AVO, Ю.Живов
Language : Russian
Default : No
Forced : No
Audio #3
ID : 4
Format : AC-3
Format/Info : Audio Coding 3
Mode extension : CM (complete main)
Format settings, Endianness : Big
Codec ID : A_AC3
Duration : 1h 34mn
Bit rate mode : Constant
Bit rate : 192 Kbps
Channel(s) : 2 channels
Channel positions : Front: L R
Sampling rate : 48.0 KHz
Bit depth : 16 bits
Compression mode : Lossy
Stream size : 129 MiB (1%)
Title : AC3 2.0 @ 192 kbps - DVO, 2+2
Language : Ukrainian
Default : No
Forced : No
Audio #4
ID : 5
Format : DTS
Format/Info : Digital Theater Systems
Format profile : MA / Core
Mode : 16
Format settings, Endianness : Big
Codec ID : A_DTS
Duration : 1h 34mn
Bit rate mode : Variable
Bit rate : Unknown / 768 Kbps
Channel(s) : 2 channels
Channel positions : Front: L R
Sampling rate : 48.0 KHz
Bit depth : 16 bits
Compression mode : Lossless / Lossy
Title : DTS-HD MA 2.0 @ 914 kbps - Dub
Language : English
Default : No
Forced : No
Audio #5
ID : 6
Format : DTS
Format/Info : Digital Theater Systems
Format profile : MA / Core
Mode : 16
Format settings, Endianness : Big
Codec ID : A_DTS
Duration : 1h 34mn
Bit rate mode : Variable
Bit rate : Unknown / 768 Kbps
Channel(s) : 2 channels
Channel positions : Front: L R
Sampling rate : 48.0 KHz
Bit depth : 16 bits
Compression mode : Lossless / Lossy
Title : DTS-HD MA 2.0 @ 936 kbps - Original
Language : French
Default : No
Forced : No
Text #1
ID : 7
Format : UTF-8
Codec ID : S_TEXT/UTF8
Codec ID/Info : UTF-8 Plain Text
Language : Russian
Default : No
Forced : No
Text #2
ID : 8
Format : UTF-8
Codec ID : S_TEXT/UTF8
Codec ID/Info : UTF-8 Plain Text
Language : English
Default : No
Forced : No
Menu
00:00:00.000 : en:00:00:00.000
00:09:08.666 : en:00:09:08.666
00:13:55.583 : en:00:13:55.583
00:18:28.458 : en:00:18:28.458
00:30:11.875 : en:00:30:11.875
00:33:49.166 : en:00:33:49.166
00:36:25.625 : en:00:36:25.625
00:41:34.875 : en:00:41:34.875
00:48:35.500 : en:00:48:35.500
00:54:12.041 : en:00:54:12.041
00:57:44.791 : en:00:57:44.791
01:01:59.583 : en:01:01:59.583
01:07:46.708 : en:01:07:46.708
01:10:34.125 : en:01:10:34.125
01:16:30.291 : en:01:16:30.291
01:22:22.500 : en:01:22:22.500
01:24:13.791 : en:01:24:13.791
01:28:31.208 : en:01:28:31.208
01:32:05.666 : en:01:32:05.666
01:33:20.958 : en:01:33:20.958
Скриншоты:            
Вне форума [Профиль] [ЛС]
Показать сообщения:    
Ответить на тему

Текущее время: Сегодня 14:49

Часовой пояс: GMT + 3



Вы не можете начинать темы
Вы не можете отвечать на сообщения
Вы не можете редактировать свои сообщения
Вы не можете удалять свои сообщения
Вы не можете голосовать в опросах
Вы не можете прикреплять файлы к сообщениям
Вы не можете скачивать файлы