Сегодня идет свободное скачивание без начисления Download

Пурпурная смерть из далекого космоса / Purple Death from Outer Space (1966) DVDRip

Ответить на тему
 
Автор
Сообщение

UndegraundMen ®

Стаж: 3 года 9 месяцев

Сообщений: 28329

Торрент-статистика

Пост 22-Дек-2013 23:00

[Цитировать]

Пурпурная смерть из далекого космоса / Purple Death from Outer Space (1966) DVDRip- Год выпуска: 1966
Жанр: Фантастика, Приключения, Фэнтези
Описание фильма:
Зловещая эпидемия "пурпурной смерти" бушует на Земле, помечая своих жертв пурпурным пятном на лбу. Профессор Зарков и Флэш Гордон устанавливают, что причина болезни - космическая пыль, которую на Землю сбрасывают по приказу диктатора планеты Монго, императора Минга Безжалостного.
Режиссер: Форд Биби и Рей Тейлор
Актеры: Бастер Крэбб, Кэрол Хьюз, Чарльз Миддлетон, Френк Шенон
Продолжительность: 01:27:53
Качество видео: DVDRip
Перевод: Одноголосый закадровый
Автор перевода: Трамвай фильм
Релиз группа: Трамвай фильм

Видеокодек: MPEG-2
Битрейт видео: ~1 957 Кбит/с
Размер кадра: 720x480
Аудио 1: Dolby, AC3, 48000Hz,192 Кбит/с, 2 канала (английский оригинал)
Аудио 2: Dolby, AC3, 48000Hz,192 Кбит/с, 2 канала (русский перевод)

Рецензия, отзыв о фильме

Этополуторочасовая компиляция классического фантастического сериала 1938 года, "Флэш Гордон Покоритель Вселенной", смонтированная в 1966 году лента предназначалсь для телетрансляции и находится в Общественном достоянии

МедиаИнфо

Format : Matroska
Format version : Version 2
File size : 1.47 GiB
Duration : 1h 27mn
Overall bit rate mode : Variable
Overall bit rate : 2 389 Kbps
Encoded date : UTC 2013-12-22 14:09:36
Writing application : mkvmerge v4.6.0 ('Still Crazy After All These Years') сборка от Mar 10 2011 02:50:32
Writing library : libebml v1.2.0 + libmatroska v1.1.0
Video
ID : 1
Format : MPEG Video
Format version : Version 2
Format profile : [email protected]
Format settings, BVOP : No
Format settings, Matrix : Default
Codec ID : V_MPEG2
Codec ID/Info : MPEG 1 or 2 Video
Duration : 1h 27mn
Bit rate mode : Variable
Bit rate : 1 957 Kbps
Maximum bit rate : 8 000 Kbps
Width : 720 pixels
Height : 480 pixels
Display aspect ratio : 4:3
Frame rate mode : Constant
Frame rate : 29.970 fps
Standard : NTSC
Color space : YUV
Chroma subsampling : 4:2:0
Bit depth : 8 bits
Scan type : Interlaced
Scan order : Bottom Field First
Compression mode : Lossy
Bits/(Pixel*Frame) : 0.189
Stream size : 1.20 GiB (82%)
Default : Yes
Forced : No
Audio #1
ID : 2
Format : AC-3
Format/Info : Audio Coding 3
Mode extension : CM (complete main)
Format settings, Endianness : Big
Muxing mode : Header stripping
Codec ID : A_AC3
Duration : 1h 27mn
Bit rate mode : Constant
Bit rate : 192 Kbps
Channel(s) : 2 channels
Channel positions : Front: L R
Sampling rate : 48.0 KHz
Bit depth : 16 bits
Compression mode : Lossy
Stream size : 121 MiB (8%)
Title : Оригинал
Language : English
Default : No
Forced : No
Audio #2
ID : 3
Format : AC-3
Format/Info : Audio Coding 3
Mode extension : CM (complete main)
Format settings, Endianness : Big
Muxing mode : Header stripping
Codec ID : A_AC3
Duration : 1h 27mn
Bit rate mode : Constant
Bit rate : 192 Kbps
Channel(s) : 2 channels
Channel positions : Front: L R
Sampling rate : 48.0 KHz
Bit depth : 16 bits
Compression mode : Lossy
Stream size : 121 MiB (8%)
Title : Перевод
Language : Russian
Default : Yes
Forced : Yes
Скриншоты:      
     
Время раздачи: с 20:00 до 23:30
Вне форума [Профиль] [ЛС]
Показать сообщения:    
Ответить на тему

Текущее время: Сегодня 00:20

Часовой пояс: GMT + 3



Вы не можете начинать темы
Вы не можете отвечать на сообщения
Вы не можете редактировать свои сообщения
Вы не можете удалять свои сообщения
Вы не можете голосовать в опросах
Вы не можете прикреплять файлы к сообщениям
Вы не можете скачивать файлы