Сегодня идет свободное скачивание без начисления Download

Зулусы / Битва у Роркс-Дрифт / Zulu / The Battle of Rorke\'s Drift (1964) BDRip

Ответить на тему
 
Автор
Сообщение

UndegraundMen ®

Стаж: 3 года 9 месяцев

Сообщений: 28329

Торрент-статистика

Пост 23-Дек-2013 23:32

[Цитировать]

Зулусы / Битва у Роркс-Дрифт / Zulu / The Battle of Rorke's Drift (1964) BDRip-«Dwarfing The Mightiest! Towering Over The Greatest!»- Год выпуска: 1964
Жанр: боевик, драма, военный, история
Описание фильма:
Фильм рассказывает о героической обороне отряда англичан у Роркс-Дрифт 22-23 января 1879 года (139 британцев отражали нападение 4500 зулусов, 11 орденов «Крест Виктории» за проявленный героизм - наибольшее количество награжденных этой наградой за одно сражение). Январь 1879 года, Южная Африка, провинция Наталь. Войска зулусов уничтожили большой отряд англичан в битве при Исандлване. Миссионер Отто Уитт со своей дочерью присутствует на массовой брачной церемонии у зулусов. Он узнаёт, что зулусы хотят напасть на военный пост англичан у брода Роркс-Дрифт. В это время на пост приезжает военный инженер лейтенант Джон Чард, которому приказано построить мост. Он бросает строительство, узнав о приближении зулусов. Командир поста лейтенант Гонвилл Бромхэд соглашается отдать командование Чарду, так как Чард поступил на службу на три месяца раньше. Солдаты готовят пост к обороне, когда приезжает Уитт и просит дать ему повозку, чтобы увезти раненых из госпиталя. Чард отказывает, поскольку раненые должны также участвовать в обороне. Буры не хотят воевать и уезжают на свои фермы. Менее чем полторы сотни англичан остаются ждать нападения четырёх тысяч зулусов. По прошествии двух дней, в течении которых шла битва, отступившие зулусы понесли тяжёлые потери убитыми и ранеными. Хороший фильм, о жестоком периоде большой колониальной войны и героической стойкости английских солдат.
Режиссер: Сай Эндфилд
Актеры: Майкл Кейн, Стэнли Бэйкер, Джек Хоукинс, Улла Якобсон, Джеймс Бут, Найджел Грин (I), Пол Данеман, Глинн Эдвардс, Нил МакКарти, Гари Бонд, Дики Оуэн
Продолжительность: 02:18:24
Качество видео: BDRip
Перевод: Многоголосый закадровый

Дата мировой премьеры: 22 января 1964
Видеокодек: Xvid
Битрейт видео: ~1307 kbps
Размер кадра: 720x304
Аудиокодек: AC3 2.0
Битрейт аудио: 192 kbps. 2 ch
&

MI

Общее
Полное имя : D:\Рипы\Zulu.1964.BDRip.avi
Формат : AVI
Формат/Информация : Audio Video Interleave
Размер файла : 1,46 Гбайт
Продолжительность : 2 ч. 18 м.
Общий поток : 1509 Кбит/сек
Название фильма : Zulu.1964.BDRip
Режиссёр : rip by maygli
Программа кодирования : VirtualDubModRus 1.5.10.2 (build 2542/release)
Правообладатель : ... (RG Rulya74)
Видео
Идентификатор : 0
Формат : MPEG-4 Visual
Профиль формата : Advanced [email protected]
Параметр BVOP формата : 1
Параметр QPel формата : Нет
Параметр GMC формата : Без точки перехода
Параметр матрицы формата : Выборочная
Идентификатор кодека : XVID
Идентификатор кодека/Подсказка : XviD
Продолжительность : 2 ч. 18 м.
Битрейт : 1307 Кбит/сек
Ширина : 720 пикселей
Высота : 304 пикселя
Соотношение сторон : 2,35:1
Частота кадров : 23,976 кадра/сек
Цветовое пространство : YUV
Субдискретизация насыщенности : 4:2:0
Битовая глубина : 8 бит
Тип развёртки : Прогрессивная
Метод сжатия : С потерями
Бит/(Пиксели*Кадры) : 0.249
Размер потока : 1,26 Гбайт (87%)
Библиотека кодирования : XviD 65
Аудио
Идентификатор : 1
Формат : AC-3
Формат/Информация : Audio Coding 3
Расширение режима : CM (complete main)
Параметр Endianness формата : Big
Идентификатор кодека : 2000
Продолжительность : 2 ч. 18 м.
Вид битрейта : Постоянный
Битрейт : 192 Кбит/сек
Каналы : 2 канала
Расположение каналов : Front: L R
Частота : 48,0 КГц
Битовая глубина : 16 бит
Метод сжатия : С потерями
Размер потока : 190 Мбайт (13%)
Выравнивание : Разделение по промежуткам
Продолжительность промежутка : 42 мс. (1,00 видеокадр)
Время предзагрузки промежутка : 500 мс.
Заголовок : Профессиональный (многоголосый закадровый)
Скриншоты:
           
Время раздачи: с 23:00 до 6:10
Вне форума [Профиль] [ЛС]
Показать сообщения:    
Ответить на тему

Текущее время: Сегодня 16:38

Часовой пояс: GMT + 3



Вы не можете начинать темы
Вы не можете отвечать на сообщения
Вы не можете редактировать свои сообщения
Вы не можете удалять свои сообщения
Вы не можете голосовать в опросах
Вы не можете прикреплять файлы к сообщениям
Вы не можете скачивать файлы