Сегодня идет свободное скачивание без начисления Download

Следуй за мечтой / Follow That Dream (1962) HDTV [1080i]

Ответить на тему
 
Автор
Сообщение

UndegraundMen ®

Стаж: 3 года 9 месяцев

Сообщений: 28329

Торрент-статистика

Пост 23-Дек-2013 23:32

[Цитировать]

Следуй за мечтой / Follow That Dream (1962) HDTV [1080i]
- «Elvis hits the road to laughter and hits a new high in romance!» - Русское название: Следуй за мечтой
Оригинальное название: Follow That Dream
Страна: США, Mirisch Company
Год выпуска: 1962
Жанр: Комедия, Драма
Описание фильма:
Семья Квимперов путешествует на автомобиле по Флориде, и на одном из шоссе у них кончается бензин. Не долго думая, глава семейства решает поселиться прямо у дороги, основав в этих живописных местах небольшую общину.
Режиссер: Гордон Дуглас
Актеры: Элвис Пресли, Артур О’Коннелл, Энн Хельм, Джоанна Мур, Джек Крушен, Саймон Оукленд, Роланд Уинтерс, Алан Хьюит, Ховард МакНир, Фрэнк ДеКова, Герберт Радли, Гэвин Коон, Робин Коон, Роберт Каррикарт, Бэрри Руссо
Продолжительность: 01:44:58
Перевод: Двухголосый закадровый, Двухголосый закадровый (Любительский)
Субтитры: Английские, Русские

Рейтинг MPAA: PG – рекомендуется присутствие родителей!!!
Дата мировой премьеры: 11 апреля 1962
Видеокодек: MPEG-4 AVC
Битрейт видео: ~ 10,3 Мбит/сек
Размер кадра: 1920х1080
Качество видео: HDTV
Аудио:
1. АС3 Русский 2.0 / 48 kHz / 192 kbps (Двухголосый закадровый, НТВ+)
2. АС3 Русский 2.0 / 48 kHz / 192 kbps (Двухголосый закадровый, И. Степанов и О. Путилина)
3. АС3 Английский 2.0 / 48 kHz / 192 kbps

MediaInfo

Общее
Уникальный идентификатор : 215811939387598152155315435564088006550 (0xA25BDE1DCE0A51DBB865ABBB81899796)
Полное имя : G:\Follow.That.Dream.1962.HDTV.1080i.mkv
Формат : Matroska
Версия формата : Version 4 / Version 2
Размер файла : 8,17 Гбайт
Продолжительность : 1 ч. 44 м.
Общий поток : 11,1 Мбит/сек
Название фильма : Follow That Dream. 1962. HDTV (1080i)
Дата кодирования : UTC 2013-12-08 10:36:24
Программа кодирования : mkvmerge v6.5.0 ('Isn't she lovely') built on Oct 20 2013 12:50:05
Библиотека кодирования : libebml v1.3.0 + libmatroska v1.4.1
Видео
Идентификатор : 1
Формат : AVC
Формат/Информация : Advanced Video Codec
Профиль формата : [url=mailto:[email protected]][email protected][/url]
Параметр CABAC формата : Да
Параметр ReFrames формата : 3 кадра
Идентификатор кодека : V_MPEG4/ISO/AVC
Продолжительность : 1 ч. 44 м.
Вид битрейта : Переменный
Битрейт : 10,3 Мбит/сек
Максимальный битрейт : 40,0 Мбит/сек
Ширина : 1920 пикс.
Высота : 1080 пикс.
Соотношение сторон : 16:9
Частота кадров : 50,000 кадр/сек
Частота кадров в оригинале : 25,000 кадр/сек
Стандарт вещания : Component
Цветовое пространство : YUV
Подвыборка цветности : 4:2:0
Битовая глубина : 8 бит
Тип развёртки : Чересстрочная
Порядок развёртки : Верхнее поле первое
Бит/(Пиксели*Кадры) : 0.100
Размер потока : 7,58 Гбайт (93%)
Заголовок : Follow That Dream. 1962. HDTV (1080i)
Язык : English
Основные цвета : BT.709-5, BT.1361, IEC 61966-2-4, SMPTE RP177
Характеристики трансфера : BT.709-5, BT.1361
Коэффициенты матрицы : BT.709-5, BT.1361, IEC 61966-2-4 709, SMPTE RP177
Аудио #1
Идентификатор : 2
Формат : AC-3
Формат/Информация : Audio Coding 3
Расширение режима : CM (complete main)
Идентификатор кодека : A_AC3
Продолжительность : 1 ч. 44 м.
Вид битрейта : Постоянный
Битрейт : 192 Кбит/сек
Каналы : 2 канала
Расположение каналов : Front: L R
Частота : 48,0 КГц
Битовая глубина : 16 бит
Метод сжатия : С потерями
Задержка видео : -120 мс.
Размер потока : 144 Мбайт (2%)
Заголовок : DVO (НТВ+) (AC3 2.0 192 kbps)
Язык : Russian
Аудио #2
Идентификатор : 3
Формат : AC-3
Формат/Информация : Audio Coding 3
Расширение режима : CM (complete main)
Идентификатор кодека : A_AC3
Продолжительность : 1 ч. 44 м.
Вид битрейта : Постоянный
Битрейт : 192 Кбит/сек
Каналы : 2 канала
Расположение каналов : Front: L R
Частота : 48,0 КГц
Битовая глубина : 16 бит
Метод сжатия : С потерями
Задержка видео : -120 мс.
Размер потока : 144 Мбайт (2%)
Заголовок : DVO (Игорь Степанов и Ольга Путилина) (AC3 2.0 192 kbps)
Язык : Russian
Аудио #3
Идентификатор : 4
Формат : AC-3
Формат/Информация : Audio Coding 3
Расширение режима : CM (complete main)
Идентификатор кодека : A_AC3
Продолжительность : 1 ч. 44 м.
Вид битрейта : Постоянный
Битрейт : 192 Кбит/сек
Каналы : 2 канала
Расположение каналов : Front: L R
Частота : 48,0 КГц
Битовая глубина : 16 бит
Метод сжатия : С потерями
Задержка видео : -120 мс.
Размер потока : 144 Мбайт (2%)
Заголовок : AC3 2.0 192 kbps
Язык : English
Текст #1
Идентификатор : 5
Формат : UTF-8
Идентификатор кодека : S_TEXT/UTF8
Идентификатор кодека/Информация : UTF-8 Plain Text
Язык : Russian
Текст #2
Идентификатор : 6
Формат : UTF-8
Идентификатор кодека : S_TEXT/UTF8
Идентификатор кодека/Информация : UTF-8 Plain Text
Язык : English
Скриншоты:
-Раздача: 24/7-Не забываем говорить спасибо, Вам не сложно, а мне приятно)))
Прошу с раздачи не уходить! Скачал сам, дай и другим скачать!!!
Приятного просмотра)))
Вне форума [Профиль] [ЛС]
Похожие темы
Форум Тема Автор Торрент Отв. Посл. сообщение
./templates/default/images/folder_dl.gif Обучающее видео [Profileschool] Александр Чалдрян | 3D LUT Creator. Следуй за белым кроликом (2014) PCRec Omen
1 | 0

0 | 2223

66

2014-10-29 13:07
Omen Последнее
Показать сообщения:    
Ответить на тему

Текущее время: Сегодня 05:09

Часовой пояс: GMT + 3



Вы не можете начинать темы
Вы не можете отвечать на сообщения
Вы не можете редактировать свои сообщения
Вы не можете удалять свои сообщения
Вы не можете голосовать в опросах
Вы не можете прикреплять файлы к сообщениям
Вы не можете скачивать файлы