Сегодня идет свободное скачивание без начисления Download

Дикая банда / The Wild Bunch (1969) BDRemux [1080p]

Ответить на тему
 
Автор
Сообщение

UndegraundMen ®

Стаж: 3 года 9 месяцев

Сообщений: 28329

Торрент-статистика

Пост 23-Дек-2013 23:32

[Цитировать]

Дикая банда / The Wild Bunch (1969) BDRemux[1080p]- Год выпуска: 1969
Жанр: Боевик, Вестерн
Производство : США
Описание фильма:
Действие картины происходит не в эпоху завоевания Дикого Запада, как это было положено в каноне, а в начале ХХ века, во времена мексиканской революции. Банда стареющих грабителей решает провернуть последнее дело перед тем, как уйти на покой «доживать» награбленное где-нибудь на мексиканском побережье Тихого океана. Но при ограблении банка в маленьком техасском городке бандиты попадают в засаду, которой руководит бывший член их сообщества, арестованный властями и поставленный перед выбором: петля или сдача подельников. После ураганной перестрелки большинству «диких» удается уйти. Теперь у них единственный шанс осуществить задуманное и прорваться в Мексику – ограбить поезд с оружием и продать его одному из мятежных революционных генералов.
Режиссер: Сэм Пекинпа
Актеры: Уильям Холден, Эрнест Боргнайн, Роберт Райан, Эдмонд О`Брайэн, Уоррен Оутс, Джейм Санчез, Бен Джонсон, Эмилио Фернандез, Стротер Мартин, Л.К. Джонс, Альберт Деккер, Бо Хопкинс, Даб Тейлор
Продолжительность: 02:24:49
Качество видео: BDRemux[1080p]
Перевод: Многоголосый закадровый
Субтитры: Английские,Французские,Испанские

Видеокодек: MPEG-4 AVC/H.264
Битрейт видео: ~14000 kbps
Размер кадра: 1920x1080
Аудио:
1: AC3, 2ch (L,R), 192 кбит/с 48 kHz - Русский
2: AC3, 6ch (L, C, R, Ls, Rs +LFE), 640 кбит/с 48 kHz -Английский (Оригинал)
3: AC3, 2ch (L,R), 192 кбит/с 48 kHz -Английский |Коментарии |

MI

Уникальный идентификатор : 223197897672812341785204725857670826792 (0xA7EA59F9A028E72CA92EEB92F7928B28)
Полное имя : The.Wild.Bunch.1969.Bluray.1080p.Rus.Eng.DD-5.1.x264-Grym.mkv
Формат : Matroska
Версия формата : Version 4 / Version 2
Размер файла : 15,3 Гбайт
Продолжительность : 2 ч. 24 м.
Режим общего битрейта : Переменный
Общий поток : 15,1 Мбит/сек
Дата кодирования : UTC 2013-12-20 17:21:35
Программа кодирования : mkvmerge v6.5.0 ('Isn't she lovely') built on Oct 20 2013 12:50:05
Библиотека кодирования : libebml v1.3.0 + libmatroska v1.4.1
Видео
Идентификатор : 1
Формат : AVC
Формат/Информация : Advanced Video Codec
Профиль формата : [url=mailto:[email protected]][email protected][/url]
Параметр CABAC формата : Да
Параметр ReFrames формата : 4 кадра
Параметр GOP формата : M=4, N=24
Идентификатор кодека : V_MPEG4/ISO/AVC
Продолжительность : 2 ч. 24 м.
Вид битрейта : Переменный
Битрейт : 14,0 Мбит/сек
Максимальный битрейт : 30,0 Мбит/сек
Ширина : 1920 пикселей
Высота : 1080 пикселей
Соотношение сторон : 16:9
Режим частоты кадров : Постоянный
Частота кадров : 23,976 кадра/сек
Цветовое пространство : YUV
Субдискретизация насыщенности : 4:2:0
Битовая глубина : 8 бит
Тип развёртки : Прогрессивная
Бит/(Пиксели*Кадры) : 0.282
Размер потока : 13,9 Гбайт (91%)
Библиотека кодирования : x264 core 135 r2345 f0c1c53
Настройки программы : cabac=1 / ref=4 / deblock=1:0:0 / analyse=0x3:0x133 / me=umh / subme=9 / psy=1 / psy_rd=1.00:0.00 / mixed_ref=1 / me_range=16 / chroma_me=1 / trellis=2 / 8x8dct=1 / cqm=0 / deadzone=21,11 / fast_pskip=1 / chroma_qp_offset=-2 / threads=12 / lookahead_threads=1 / sliced_threads=0 / slices=4 / nr=0 / decimate=1 / interlaced=0 / bluray_compat=1 / constrained_intra=0 / bframes=3 / b_pyramid=0 / b_adapt=1 / b_bias=0 / direct=3 / weightb=1 / open_gop=0 / weightp=1 / keyint=24 / keyint_min=1 / scenecut=40 / intra_refresh=0 / rc_lookahead=24 / rc=2pass / mbtree=1 / bitrate=14020 / ratetol=1.0 / qcomp=0.60 / qpmin=0 / qpmax=69 / qpstep=4 / cplxblur=20.0 / qblur=0.5 / vbv_maxrate=30000 / vbv_bufsize=30000 / nal_hrd=vbr / ip_ratio=1.10 / aq=1:1.00
Default : Да
Forced : Нет
Аудио #1
Идентификатор : 2
Формат : AC-3
Формат/Информация : Audio Coding 3
Расширение режима : CM (complete main)
Параметр Endianness формата : Big
Идентификатор кодека : A_AC3
Продолжительность : 2 ч. 24 м.
Вид битрейта : Постоянный
Битрейт : 192 Кбит/сек
Каналы : 2 канала
Расположение каналов : Front: L R
Частота : 48,0 КГц
Битовая глубина : 16 бит
Метод сжатия : С потерями
Размер потока : 199 Мбайт (1%)
Заголовок : Профессиональный (многоголосый закадровый) MVO
Язык : Russian
Default : Да
Forced : Да
Аудио #2
Идентификатор : 3
Формат : AC-3
Формат/Информация : Audio Coding 3
Расширение режима : CM (complete main)
Параметр Endianness формата : Big
Идентификатор кодека : A_AC3
Продолжительность : 2 ч. 24 м.
Вид битрейта : Постоянный
Битрейт : 640 Кбит/сек
Каналы : 6 каналов
Расположение каналов : Front: L C R, Side: L R, LFE
Частота : 48,0 КГц
Битовая глубина : 16 бит
Метод сжатия : С потерями
Размер потока : 663 Мбайт (4%)
Язык : English
Default : Нет
Forced : Нет
Аудио #3
Идентификатор : 4
Формат : AC-3
Формат/Информация : Audio Coding 3
Профиль формата : Dolby Digital
Расширение режима : CM (complete main)
Параметр Endianness формата : Big
Идентификатор кодека : A_AC3
Продолжительность : 2 ч. 24 м.
Вид битрейта : Постоянный
Битрейт : 192 Кбит/сек
Каналы : 2 канала
Расположение каналов : Front: L R
Частота : 48,0 КГц
Битовая глубина : 16 бит
Метод сжатия : С потерями
Размер потока : 199 Мбайт (1%)
Язык : English
Default : Нет
Forced : Нет
Текст #1
Идентификатор : 5
Формат : PGS
Режим смешивания : zlib
Идентификатор кодека : S_HDMV/PGS
Идентификатор кодека/Информация : The same subtitle format used on BDs/HD-DVDs
Язык : English
Default : Нет
Forced : Нет
Текст #2
Идентификатор : 6
Формат : PGS
Режим смешивания : zlib
Идентификатор кодека : S_HDMV/PGS
Идентификатор кодека/Информация : The same subtitle format used on BDs/HD-DVDs
Язык : English
Default : Нет
Forced : Нет
Текст #3
Идентификатор : 7
Формат : PGS
Режим смешивания : zlib
Идентификатор кодека : S_HDMV/PGS
Идентификатор кодека/Информация : The same subtitle format used on BDs/HD-DVDs
Язык : French
Default : Нет
Forced : Нет
Текст #4
Идентификатор : 8
Формат : PGS
Режим смешивания : zlib
Идентификатор кодека : S_HDMV/PGS
Идентификатор кодека/Информация : The same subtitle format used on BDs/HD-DVDs
Язык : Spanish
Default : Нет
Forced : Нет
Меню
00:00:00.000 : en:00:00:00.000
00:06:32.767 : en:00:06:32.767
00:10:08.566 : en:00:10:08.566
00:14:28.325 : en:00:14:28.325
00:15:25.132 : en:00:15:25.132
00:18:15.260 : en:00:18:15.260
00:20:13.837 : en:00:20:13.837
00:22:41.234 : en:00:22:41.234
00:23:34.579 : en:00:23:34.579
00:31:02.610 : en:00:31:02.610
00:34:16.012 : en:00:34:16.012
00:36:34.442 : en:00:36:34.442
00:41:44.335 : en:00:41:44.335
00:42:52.152 : en:00:42:52.152
00:48:12.097 : en:00:48:12.097
00:50:17.848 : en:00:50:17.848
00:52:52.294 : en:00:52:52.294
00:59:42.579 : en:00:59:42.579
01:03:45.488 : en:01:03:45.488
01:09:22.575 : en:01:09:22.575
01:11:56.645 : en:01:11:56.645
01:17:12.169 : en:01:17:12.169
01:21:45.775 : en:01:21:45.775
01:24:24.267 : en:01:24:24.267
01:27:23.029 : en:01:27:23.029
01:28:27.760 : en:01:28:27.760
01:32:02.600 : en:01:32:02.600
01:35:19.922 : en:01:35:19.922
01:36:50.095 : en:01:36:50.095
01:41:18.572 : en:01:41:18.572
01:46:22.000 : en:01:46:22.000
01:49:07.374 : en:01:49:07.374
01:49:56.506 : en:01:49:56.506
01:52:20.650 : en:01:52:20.650
01:55:32.967 : en:01:55:32.967
02:00:10.995 : en:02:00:10.995
02:04:09.108 : en:02:04:09.108
02:08:16.271 : en:02:08:16.271
02:10:41.750 : en:02:10:41.750
02:12:24.394 : en:02:12:24.394
02:13:35.590 : en:02:13:35.590
02:14:53.877 : en:02:14:53.877
02:17:04.049 : en:02:17:04.049
02:19:13.511 : en:02:19:13.511
02:21:17.635 : en:02:21:17.635
02:22:35.088 : en:02:22:35.088
02:24:49.555 : en:02:24:49.555
Скриншоты:

Время раздачи: 16:00-02:00
Вне форума [Профиль] [ЛС]
Похожие темы
Форум Тема Автор Торрент Отв. Посл. сообщение
./templates/default/images/folder_dl.gif Зарубежное кино Дикая / Wild (Жан-Марк Валле / Jean-Marc Valle) [2014, США, Драма, биография, Blu-ray disc] Dub + Sub Rus, Eng + Original Eng Omen
1 | 0

1 | 512

7

2015-05-08 07:34
Dracula Последнее
Показать сообщения:    
Ответить на тему

Текущее время: Сегодня 13:10

Часовой пояс: GMT + 3



Вы не можете начинать темы
Вы не можете отвечать на сообщения
Вы не можете редактировать свои сообщения
Вы не можете удалять свои сообщения
Вы не можете голосовать в опросах
Вы не можете прикреплять файлы к сообщениям
Вы не можете скачивать файлы