Сегодня идет свободное скачивание без начисления Download

Кто подставил кролика Роджера / Who Framed Roger Rabbit (1988) HDRip [Extended Cut]

Ответить на тему
 
Автор
Сообщение

UndegraundMen ®

Стаж: 3 года 9 месяцев

Сообщений: 28329

Торрент-статистика

Пост 24-Дек-2013 11:00

[Цитировать]

Кто подставил кролика Роджера (Расширенная версия) / Who Framed Roger Rabbit (Extended Cut) (1988) HDRip- Год выпуска: 1988
Жанр: Комедия, Семейный, Фэнтези
Описание фильма:
Частный детектив расследует загадочное преступление, в котором подозревается… мультипликационный персонаж кролик Роджер! Сыщик попадает в непредсказуемый мир, где его ожидают нарисованные злодеи с настоящими револьверами, говорящий автомобиль и соблазнительная мультяшная красотка. Наконец, на горизонте появляется мрачная фигура того, кто подставил кролика Роджера.
Режиссер: Роберт Земекис
Актеры: Боб Хоскинс, Кристофер Ллойд, Джоанна Кэссиди, Чарльз Флайшер, Стабби Кэй, Алан Тилверн, Ричард ЛеПарментье, Лу Хирш, Бетси Брэнтли, Джоэл Силвер
Продолжительность: 02:06:26
Качество видео: HDRip
Перевод: Дублированный, со вставками двухголосого на расширенные места

Дата мировой премьеры: 21.06.1988
Дата российской премьеры: 30.06.1988
Дата выхода DVD релиза: 05.04.2011
Видеокодек: Xvid
Битрейт видео: ~1159 kbps avg
Размер кадра: 704x384
Аудио #1: 44.100 kHz, MPEG Layer 3, 2 ch, 256.00 kbps avg
Профессиональный (полное дублирование со вставками любительского двухголосого на расширенные места)
Аудио #2: 44.1 kHz, AC3 Dolby Digital, 2/0 (L,R) ch, 256 kbps
Профессиональный (полное дублирование без перевода на расширенные места)

Extended Cut

Расширенная версия была получена путем врезания удаленных и расширенных сцен на свои места.
Также было добавлено три мультфильма относящиеся к этому фильму.

мультфильмы

1. Проблемы с животиком / Tummy Trouble.
2. Кролик на американских горках / Roller Coaster Rabbit.
3. Путаница в лесу / Trail Mix-up.
Добавленные сцены отличаются по качеству видео от самого фильма.

MediaInfo

Общее
Полное имя : E:\торренты на раздаче\Кто подставил кролика Роджера [extended].avi
Формат : AVI
Формат/Информация : Audio Video Interleave
Размер файла : 1,49 Гбайт
Продолжительность : 2 ч. 6 м.
Общий поток : 1688 Кбит/сек
Программа кодирования : VirtualDubMod 1.5.10.2 (build 2540/release)
Библиотека кодирования : VirtualDubMod build 2540/release
Видео
Идентификатор : 0
Формат : MPEG-4 Visual
Профиль формата : Advanced [email protected]
Параметр BVOP формата : 2
Параметр QPel формата : Нет
Параметр GMC формата : Без точки перехода
Параметр матрицы формата : Default (H.263)
Режим смешивания : Сжатый битовый поток
Идентификатор кодека : XVID
Идентификатор кодека/Подсказка : XviD
Продолжительность : 2 ч. 6 м.
Битрейт : 1159 Кбит/сек
Ширина : 704 пикселя
Высота : 384 пикселя
Соотношение сторон : 1,85:1
Частота кадров : 29,970 кадров/сек
Цветовое пространство : YUV
Субдискретизация насыщенности : 4:2:0
Битовая глубина : 8 бит
Тип развёртки : Прогрессивная
Метод сжатия : С потерями
Бит/(Пиксели*Кадры) : 0.143
Размер потока : 1,02 Гбайт (69%)
Библиотека кодирования : XviD 64
Аудио #1
Идентификатор : 1
Формат : MPEG Audio
Версия формата : Version 1
Профиль формата : Layer 3
Режим : Joint stereo
Идентификатор кодека : 55
Идентификатор кодека/Подсказка : MP3
Продолжительность : 2 ч. 6 м.
Вид битрейта : Постоянный
Битрейт : 256 Кбит/сек
Каналы : 2 канала
Частота : 44,1 КГц
Метод сжатия : С потерями
Размер потока : 232 Мбайт (15%)
Выравнивание : Разделение по промежуткам
Продолжительность промежутка : 33 мс. (1,00 видеокадр)
Время предзагрузки промежутка : 500 мс.
Аудио #2
Идентификатор : 2
Формат : AC-3
Формат/Информация : Audio Coding 3
Расширение режима : CM (complete main)
Параметр Endianness формата : Big
Идентификатор кодека : 2000
Продолжительность : 2 ч. 6 м.
Вид битрейта : Постоянный
Битрейт : 256 Кбит/сек
Каналы : 2 канала
Расположение каналов : Front: L R
Частота : 44,1 КГц
Битовая глубина : 16 бит
Метод сжатия : С потерями
Размер потока : 231 Мбайт (15%)
Выравнивание : Соединение по промежуткам
Продолжительность промежутка : 35 мс. (1,04 видеокадр)
Время предзагрузки промежутка : 522 мс.
Скриншоты:
       
Время раздачи: по возможности 24/7
Вне форума [Профиль] [ЛС]
Показать сообщения:    
Ответить на тему

Текущее время: Сегодня 14:57

Часовой пояс: GMT + 3



Вы не можете начинать темы
Вы не можете отвечать на сообщения
Вы не можете редактировать свои сообщения
Вы не можете удалять свои сообщения
Вы не можете голосовать в опросах
Вы не можете прикреплять файлы к сообщениям
Вы не можете скачивать файлы