Сегодня идет свободное скачивание без начисления Download

Эммануэль 2 / Emmanuelle: L\'antivierge (1975) BDRip [H.264/720p-LQ] [Hi10P]

Ответить на тему
 
Автор
Сообщение

UndegraundMen ®

Стаж: 3 года 9 месяцев

Сообщений: 28329

Торрент-статистика

Пост 25-Дек-2013 05:05

[Цитировать]

Эммануэль 2 / Emmanuelle: L'antivierge (1975) BDRip [H.264/720p-LQ] [Hi10P]- Год выпуска: 1975
Жанр: Эротика, Мелодрама
Описание фильма: Во втором фильме знаменитого сериала Эммануэль из прилежной ученицы, усваивающей уроки любви, превращается в неистовую и ненасытную охотницу за наслаждениями. Незатейливый сюжет украшен пейзажами и нарядами, автомобилями и океанскими волнами, и наполнен страстью, страстью, страстью...
Режиссер: Франсис Джакобетти
Актеры: Сильвия Кристель, Умберто Орсини, Фредерик Лагаш, Катрин Риве, Анри Черняк, Том Кларк, Мэрион Уомбл, Флоранс Л. Афума, Клер Ришар, Лаура Гемсер
Качество видео: BDRip
Продолжительность: 01:31:24
Перевод: Профессиональный (многоголосый, закадровый), Авторский (одноголосый, закадровый)
Оригинальная аудио дорожка: Французская
Язык субтитров: Русский, Английский
Вид субтитров: Вшитые

[url=/forum/viewtopic.php?t=708577]Эммануэль / Emmanuelle (1974)[/url]
Формат: MKV
Видео: MPEG-4 AVC/H.264, 1280x544(2,35:1), 23,976fps, 1891 Кbps, 0.113bit/pixel
Аудио 1: MVO Russian, AC3, 2ch, 48 kHz, 192 kbps, (Многоголосый - R5)
Аудио 2: AVO Russian, AC3, 2ch, 48 kHz, 192 kbps, (Одноголосый - Мишин)
Аудио 3: DVO Ukranian, AC3, 2ch, 48 kHz, 192 kbps, (Двухголосый)
Аудио 4: DUB English, AC3, 2ch, 48 kHz, 192 kbps, (Дубляж)
Аудио 5: Francais, AC3, 2ch, 48 kHz, 192 kbps, (Оригинал)

MediaInfo

Общее
Полное имя : Эммануэль 2 (1975) BDRip-AVC.mkv
Формат : Matroska
Версия формата : Version 4 / Version 2
Размер файла : 1,86 Гбайт
Продолжительность : 1 ч. 31 м.
Общий поток : 2909 Кбит/сек
Название фильма : Эммануэль 2 / Emmanuelle: L'antivierge (1975) BDRip-AVC (Sinteros)
Программа кодирования : mkvmerge v6.6.0 ('The Edge Of The In Between') built on Dec 1 2013 17:55:00
Библиотека кодирования : libebml v1.3.0 + libmatroska v1.4.1
Attachment : Yes
Видео
Идентификатор : 1
Формат : AVC
Формат/Информация : Advanced Video Codec
Профиль формата : High [url=mailto:[email protected]][email protected][/url]
Параметр CABAC формата : Да
Параметр ReFrames формата : 11 кадров
Идентификатор кодека : V_MPEG4/ISO/AVC
Продолжительность : 1 ч. 31 м.
Битрейт : 1891 Кбит/сек
Ширина : 1280 пикселей
Высота : 544 пикселя
Соотношение сторон : 2,35:1
Режим частоты кадров : Постоянный
Частота кадров : 23,976 кадра/сек
Цветовое пространство : YUV
Субдискретизация насыщенности : 4:2:0
Битовая глубина : 10 бит
Тип развёртки : Прогрессивная
Бит/(Пиксели*Кадры) : 0.113
Размер потока : 1,21 Гбайт (65%)
Заголовок : MPEG-4 AVC/H.264, 1280x544(2,35:1), 23,976fps, 1891 Кbps, 0.113bit/pixel
Библиотека кодирования : x264 core 133 r2334 a3ac64b
Настройки программы : cabac=1 / ref=11 / deblock=1:-1:-1 / analyse=0x3:0x133 / me=tesa / subme=10 / psy=1 / psy_rd=1.00:0.15 / mixed_ref=1 / me_range=24 / chroma_me=1 / trellis=2 / 8x8dct=1 / cqm=0 / deadzone=21,11 / fast_pskip=1 / chroma_qp_offset=-3 / threads=12 / lookahead_threads=1 / sliced_threads=0 / nr=0 / decimate=1 / interlaced=0 / bluray_compat=0 / constrained_intra=0 / bframes=6 / b_pyramid=2 / b_adapt=2 / b_bias=0 / direct=3 / weightb=1 / open_gop=0 / weightp=2 / keyint=250 / keyint_min=23 / scenecut=40 / intra_refresh=0 / rc_lookahead=60 / rc=crf / mbtree=1 / crf=18.0 / qcomp=0.60 / qpmin=0 / qpmax=81 / qpstep=4 / ip_ratio=1.40 / aq=1:1.00
Язык : English
Default : Да
Forced : Нет
Аудио #1
Идентификатор : 2
Формат : AC-3
Формат/Информация : Audio Coding 3
Расширение режима : CM (complete main)
Параметр Endianness формата : Big
Идентификатор кодека : A_AC3
Продолжительность : 1 ч. 31 м.
Вид битрейта : Постоянный
Битрейт : 192 Кбит/сек
Каналы : 2 канала
Расположение каналов : Front: L R
Частота : 48,0 КГц
Битовая глубина : 16 бит
Метод сжатия : С потерями
Размер потока : 126 Мбайт (7%)
Заголовок : MVO Russian, AC3, 2ch, 48 kHz, 192 kbps, (Многоголосый - R5)
Язык : Russian
Default : Да
Forced : Нет
Аудио #2
Идентификатор : 3
Формат : AC-3
Формат/Информация : Audio Coding 3
Расширение режима : CM (complete main)
Параметр Endianness формата : Big
Идентификатор кодека : A_AC3
Продолжительность : 1 ч. 31 м.
Вид битрейта : Постоянный
Битрейт : 192 Кбит/сек
Каналы : 2 канала
Расположение каналов : Front: L R
Частота : 48,0 КГц
Битовая глубина : 16 бит
Метод сжатия : С потерями
Размер потока : 126 Мбайт (7%)
Заголовок : AVO Russian, AC3, 2ch, 48 kHz, 192 kbps, (Одноголосый - Мишин)
Язык : Russian
Default : Нет
Forced : Нет
Аудио #3
Идентификатор : 4
Формат : AC-3
Формат/Информация : Audio Coding 3
Расширение режима : CM (complete main)
Параметр Endianness формата : Big
Идентификатор кодека : A_AC3
Продолжительность : 1 ч. 31 м.
Вид битрейта : Постоянный
Битрейт : 192 Кбит/сек
Каналы : 2 канала
Расположение каналов : Front: L R
Частота : 48,0 КГц
Битовая глубина : 16 бит
Метод сжатия : С потерями
Размер потока : 126 Мбайт (7%)
Заголовок : DVO Ukranian, AC3, 2ch, 48 kHz, 192 kbps, (Двухголосый)
Язык : Ukrainian
Default : Нет
Forced : Нет
Аудио #4
Идентификатор : 5
Формат : AC-3
Формат/Информация : Audio Coding 3
Расширение режима : CM (complete main)
Параметр Endianness формата : Big
Идентификатор кодека : A_AC3
Продолжительность : 1 ч. 31 м.
Вид битрейта : Постоянный
Битрейт : 192 Кбит/сек
Каналы : 2 канала
Расположение каналов : Front: L R
Частота : 48,0 КГц
Битовая глубина : 16 бит
Метод сжатия : С потерями
Размер потока : 126 Мбайт (7%)
Заголовок : DUB English, AC3, 2ch, 48 kHz, 192 kbps, (Дубляж)
Язык : English
Default : Нет
Forced : Нет
Аудио #5
Идентификатор : 6
Формат : AC-3
Формат/Информация : Audio Coding 3
Расширение режима : CM (complete main)
Параметр Endianness формата : Big
Идентификатор кодека : A_AC3
Продолжительность : 1 ч. 31 м.
Вид битрейта : Постоянный
Битрейт : 192 Кбит/сек
Каналы : 2 канала
Расположение каналов : Front: L R
Частота : 48,0 КГц
Битовая глубина : 16 бит
Метод сжатия : С потерями
Размер потока : 126 Мбайт (7%)
Заголовок : Francais, AC3, 2ch, 48 kHz, 192 kbps, (Оригинал)
Язык : French
Default : Нет
Forced : Нет
Текст #1
Идентификатор : 7
Формат : UTF-8
Идентификатор кодека : S_TEXT/UTF8
Идентификатор кодека/Информация : UTF-8 Plain Text
Язык : Russian
Default : Нет
Forced : Нет
Текст #2
Идентификатор : 8
Формат : UTF-8
Идентификатор кодека : S_TEXT/UTF8
Идентификатор кодека/Информация : UTF-8 Plain Text
Язык : English
Default : Нет
Forced : Нет
Меню
00:00:00.000 : en:00:00:00.000
00:05:55.355 : en:00:05:55.355
00:12:00.678 : en:00:12:00.678
00:18:04.333 : en:00:18:04.333
00:26:11.236 : en:00:26:11.236
00:31:43.944 : en:00:31:43.944
00:36:00.325 : en:00:36:00.325
00:42:01.936 : en:00:42:01.936
00:47:56.332 : en:00:47:56.332
00:56:26.883 : en:00:56:26.883
01:05:05.527 : en:01:05:05.527
01:07:26.167 : en:01:07:26.167
01:11:47.345 : en:01:11:47.345
01:17:49.582 : en:01:17:49.582
01:23:45.437 : en:01:23:45.437
01:29:38.456 : en:01:29:38.456
Примечание: Рип в High 10 Profile, в настоящее время не поддерживается большинством аппаратных проигрывателей, поэтому предназначен исключительно для воспроизведения на ПК.
Для корректного воспроизведения может потребоваться обновление ПО.
Скриншоты:
         
         
Вне форума [Профиль] [ЛС]
Показать сообщения:    
Ответить на тему

Текущее время: Сегодня 17:33

Часовой пояс: GMT + 3



Вы не можете начинать темы
Вы не можете отвечать на сообщения
Вы не можете редактировать свои сообщения
Вы не можете удалять свои сообщения
Вы не можете голосовать в опросах
Вы не можете прикреплять файлы к сообщениям
Вы не можете скачивать файлы