Сегодня идет свободное скачивание без начисления Download

Алая женщина / La femme еcarlate (1969) DVDRip [H.264]

Ответить на тему
 
Автор
Сообщение

UndegraundMen ®

Стаж: 3 года 9 месяцев

Сообщений: 28329

Торрент-статистика

Пост 28-Дек-2013 23:01

[Цитировать]

Алая женщина / La femme еcarlate (1969) DVDRip [H.264] - Год выпуска: 1969
Жанр: Комедия, Мелодрама
Производство: Франция, Италия/Les Films de l'Epée, Les Films de la Boétie, Produzioni Europee Associati (PEA)
Описание фильма:
Ева и Жюльен жили в Ницце и любили друг друга, по крайней мере так думала сама молодая девушка Ева. Но Жюльен предаёт её, и кроме того все её деньги потеряны. Ева решает убить предателя и после покончить с собой. А пока она даёт себе одну неделю и отправляется в Париж, чтобы прожить это время прекрасно и проститься со всем — с миром, людьми, Парижем, жизнью, а потом в пятницу исполнить свой план.
Режиссер: Жан Валер
Сценарий: Поль Жегофф, Жан Валер
Продюсер: Альберто Гримальди, Андре Женовес
Композитор: Мишель Коломбье
Актеры: Моника Витти, Морис Роне, Робер Оссейн, Клаудио Брук, Альбер Симоно, Люсьен Рэмбур, Моник Мелинан, Симона Бах, Робер Роллис, Сабина Сун
Продолжительность: 01:24:59
Качество видео: DVDRip
Перевод: Многоголосый закадровый

Дата мировой премьеры: 14 мая 1969
Видеокодек: MPEG-4 AVC/H.264
Битрейт видео: ~2108 Кбит/сек
Размер кадра: 720x400
Аудиокодек: AC3 2.0

Реценция с кинопоиска от blue velvet_kroko:

Умереть красиво
Кто эта женщина — Люсиль-Диана-Лиза? Все имена — ложные.
Богатую наследницу, умницу и красавицу бросил любовник. Не просто бросил, но и обобрал до нитки. Практически, до последней нитки жемчуга. Ну, еще осталось несколько украшений, миллионов на 10, не больше. Прекрасная парфюмерная фабрика отошла к негодяю, дом отняли за долги. Привыкшая с детства к роскошной жизни, бедняжка оказалась на улице. Осталось только умереть. Но умереть неотомщенной? Нет, никогда!
Слезы капают в бокал дорогого шампанского и на бутерброд с черной икрой, а в хорошенькой головке наследницы зреет зловещий план. Но все гораздо серьезнее, чем вы думаете. Она действительно умирает. Ведь перед вами — Моника Витти, а значит, мелодрамы не будет.
Фильм — изящная трагикомедия. Вот, должно произойти нечто ужасное, но вырождается в декоративно-комический трюк. Сцена, задуманная как смешная, перечеркивается тяжелым трагическим взглядом обманутой женщины. Букеты из алых роз, наряды от Диора и оборудованный по последней моде номер отеля Хилтон лишь подчеркивают ее неприкаянность. Героиня вовсе не борется за жизнь, но, умирая, хочет шикануть напоследок.
И все-таки, есть в ней неистребимая жажда жизни. Потому и собралась вокруг толпа ухажеров: американский журналист, менеджер популярной рок-группы, авантюрист из Буэнос-Айреса. Но видят ли ее эти мужчины? Замечают ли в ее глазах смерть? Даже бывший любовник готов купиться. Лишь один случайный знакомый разгадал этот взгляд, понял, что женщина эта не шутит, но не смог ее удержать.
Героиня сбегает от своего спасителя, снова меняет имя. Порою кажется, что вот-вот он ее настигнет, а может, все-таки нет. Пересекутся ли они еще, неясно. Интрига держится до конца. С каждым днем этой последней недели ее лицо становится и печальней, и жестче, а поведение все более отчаянным…
Чем это может закончиться, узнаете сами, если посмотрите фильм. Но что бы там не случилось, я уверена, вам понравится. Красивый, изящный, легкий, он смотрится на одном дыхании. Пусть это не классика мирового кино, но был забыт незаслуженно.
Именно в этом фильме я впервые увидела прекрасную Монику Витти и была просто поражена ее актерским дарованием. Красивые люди, красивые вещи вносят актуальную нотку гламура. Это в большей степени дамский фильм, но и мужчин он не оставит равнодушными. Он интригует и заставляет сопереживать, и, как это ни странно, дарит хорошее настроение. Такое редко встречается, в последнее время особенно. Смотрите и наслаждайтесь — перед вами Моника Витти.
10 из 10

MediaInfo:

General
Unique ID : 171069991430225698909677294497728334775 (0x80B2E1C4BB9749DCA7720F8428C08BB7)
Complete name : F:\Downloads\Алая женщина.mkv
Format : Matroska
Format version : Version 4 / Version 2
File size : 1.37 GiB
Duration : 1h 24mn
Overall bit rate : 2 302 Kbps
Encoded date : UTC 2013-12-27 14:24:48
Writing application : mkvmerge v6.4.1 ('Omega Point') built on Sep 16 2013 22:05:10
Writing library : libebml v1.3.0 + libmatroska v1.4.1
Video
ID : 1
Format : AVC
Format/Info : Advanced Video Codec
Format profile : [url=mailto:[email protected]][email protected][/url]
Format settings, CABAC : Yes
Format settings, ReFrames : 8 frames
Codec ID : V_MPEG4/ISO/AVC
Duration : 1h 24mn
Bit rate : 2 108 Kbps
Width : 720 pixels
Height : 400 pixels
Display aspect ratio : 16:9
Frame rate mode : Constant
Frame rate : 23.976 fps
Color space : YUV
Chroma subsampling : 4:2:0
Bit depth : 8 bits
Scan type : Progressive
Bits/(Pixel*Frame) : 0.305
Stream size : 1.23 GiB (90%)
Title : La Femme ecarlate
Writing library : x264 core 130 r2273 b3065e6
Encoding settings : cabac=1 / ref=8 / deblock=1:-1:-1 / analyse=0x3:0x133 / me=umh / subme=9 / psy=1 / psy_rd=1.00:0.10 / mixed_ref=1 / me_range=32 / chroma_me=1 / trellis=2 / 8x8dct=1 / cqm=0 / deadzone=21,11 / fast_pskip=0 / chroma_qp_offset=-3 / threads=6 / lookahead_threads=1 / sliced_threads=0 / nr=0 / decimate=1 / interlaced=0 / bluray_compat=0 / constrained_intra=0 / bframes=3 / b_pyramid=2 / b_adapt=2 / b_bias=0 / direct=3 / weightb=1 / open_gop=0 / weightp=2 / keyint=250 / keyint_min=25 / scenecut=40 / intra_refresh=0 / rc_lookahead=60 / rc=2pass / mbtree=1 / bitrate=2108 / ratetol=1.0 / qcomp=0.60 / qpmin=10 / qpmax=51 / qpstep=4 / cplxblur=20.0 / qblur=0.5 / ip_ratio=1.40 / aq=1:1.00
Language : Italian
Default : Yes
Forced : No
Audio
ID : 2
Format : AC-3
Format/Info : Audio Coding 3
Mode extension : CM (complete main)
Format settings, Endianness : Big
Codec ID : A_AC3
Duration : 1h 24mn
Bit rate mode : Constant
Bit rate : 192 Kbps
Channel(s) : 2 channels
Channel positions : Front: L R
Sampling rate : 48.0 KHz
Bit depth : 16 bits
Compression mode : Lossy
Delay relative to video : 1s 0ms
Stream size : 117 MiB (8%)
Title : Профессиональный многоголосый
Language : Russian
Default : Yes
Forced : No
Скриншоты:                    Время раздачи: с 13:00 до 01:00 по Москве (выходные круглосуточно), до 10 скачавших
Вне форума [Профиль] [ЛС]
Показать сообщения:    
Ответить на тему

Текущее время: Сегодня 00:20

Часовой пояс: GMT + 3



Вы не можете начинать темы
Вы не можете отвечать на сообщения
Вы не можете редактировать свои сообщения
Вы не можете удалять свои сообщения
Вы не можете голосовать в опросах
Вы не можете прикреплять файлы к сообщениям
Вы не можете скачивать файлы