Сегодня идет свободное скачивание без начисления Download

Доклад Чепмена / The Chapman Report (1962) DVDRip [H.264]

Ответить на тему
 
Автор
Сообщение

UndegraundMen ®

Стаж: 3 года 9 месяцев

Сообщений: 28329

Торрент-статистика

Пост 28-Дек-2013 23:00

[Цитировать]

Доклад Чепмена / The Chapman Report (1962) DVDRip [H.264] -«The personal story behind a sex survey ... from the controversial best selling novel»- Год выпуска: 1962
Жанр: Драма, Мелодрама, Комедия
Производство: США/Darryl F. Zanuck Productions
Описание фильма:
Психолог Джордж Чепмен приезжает в Лос-Анджелес со своим ассистентом. Они ищут добровольцев для изучения психологической основы женской сексуальности. Откликаются четыре женщины.
Режиссер: Джордж Кьюкор
Сценарий: Уайатт Купер, Дон Манкевич, Грант Стюарт
Продюсер: Дэррил Ф. Занук, Ричард Д. Занук, Майкл А. Хоуи
Композитор: Леонард Розенман
Актеры: Ефрем Цимбалист мл., Джейн Фонда, Клэр Блум, Шелли Уинтерс, Глинис Джонс, Рэй Дэнтон, Ти Хардин, Эндрю Дагган, Джон Денер, Харольд Стоун
Продолжительность: 02:05:05
Качество видео: DVDRip
Перевод: Двуголосый закадровый ("СВ-Дубль" по заказу ГТРК "Культура" в 2004 г.)
Субтитры: Отсутствуют

Дата мировой премьеры: 5 октября 1962
Видеокодек: MPEG-4 AVC/H.264
Битрейт видео: ~1810 Кбит/сек
Размер кадра: 720x432
Аудиокодек: AC3 2.0
Битрейт аудио: 192 Кбит/сек

Награды:

Золотой глобус, 1963 год
Номинации (4):
Лучшая женская роль (драма) (Глинис Джонс)
Лучший фильм (драма)
Лучший режиссер (Джордж Кьюкор)
Лучшая мужская роль второго плана (Харольд Стоун)

MediaInfo:

General
Unique ID : 179561631044212760923374384465243219040 (0x87164FECEF9CA975A407969868CB2460)
Complete name : F:\Downloads\Доклад Чепмена.mkv
Format : Matroska
Format version : Version 4 / Version 2
File size : 1.75 GiB
Duration : 2h 5mn
Overall bit rate : 2 004 Kbps
Encoded date : UTC 2013-12-28 06:26:15
Writing application : mkvmerge v6.4.1 ('Omega Point') built on Sep 16 2013 22:05:10
Writing library : libebml v1.3.0 + libmatroska v1.4.1
Video
ID : 1
Format : AVC
Format/Info : Advanced Video Codec
Format profile : [url=mailto:[email protected]][email protected][/url]
Format settings, CABAC : Yes
Format settings, ReFrames : 8 frames
Codec ID : V_MPEG4/ISO/AVC
Duration : 2h 5mn
Bit rate : 1 810 Kbps
Width : 720 pixels
Height : 432 pixels
Display aspect ratio : 1.667
Frame rate mode : Constant
Frame rate : 23.976 fps
Color space : YUV
Chroma subsampling : 4:2:0
Bit depth : 8 bits
Scan type : Progressive
Bits/(Pixel*Frame) : 0.243
Stream size : 1.55 GiB (88%)
Title : The Chapman Report
Writing library : x264 core 130 r2273 b3065e6
Encoding settings : cabac=1 / ref=8 / deblock=1:-1:-1 / analyse=0x3:0x133 / me=umh / subme=9 / psy=1 / psy_rd=1.00:0.10 / mixed_ref=1 / me_range=32 / chroma_me=1 / trellis=2 / 8x8dct=1 / cqm=0 / deadzone=21,11 / fast_pskip=0 / chroma_qp_offset=-3 / threads=6 / lookahead_threads=1 / sliced_threads=0 / nr=0 / decimate=1 / interlaced=0 / bluray_compat=0 / constrained_intra=0 / bframes=3 / b_pyramid=2 / b_adapt=2 / b_bias=0 / direct=3 / weightb=1 / open_gop=0 / weightp=2 / keyint=250 / keyint_min=25 / scenecut=40 / intra_refresh=0 / rc_lookahead=60 / rc=2pass / mbtree=1 / bitrate=1810 / ratetol=1.0 / qcomp=0.60 / qpmin=10 / qpmax=51 / qpstep=4 / cplxblur=20.0 / qblur=0.5 / ip_ratio=1.40 / aq=1:1.00
Language : English
Default : Yes
Forced : No
Audio
ID : 2
Format : AC-3
Format/Info : Audio Coding 3
Mode extension : CM (complete main)
Format settings, Endianness : Big
Codec ID : A_AC3
Duration : 2h 5mn
Bit rate mode : Constant
Bit rate : 192 Kbps
Channel(s) : 2 channels
Channel positions : Front: L R
Sampling rate : 48.0 KHz
Bit depth : 16 bits
Compression mode : Lossy
Stream size : 172 MiB (10%)
Title : Двухголосый закадровый ("СВ-Дубль" по заказу ГТРК "Культура" в 2004 г.)
Language : Russian
Default : Yes
Forced : No
Скриншоты:                    Время раздачи: с 13:00 до 01:00 по Москве (выходные круглосуточно), до 10 скачавших
Вне форума [Профиль] [ЛС]
Показать сообщения:    
Ответить на тему

Текущее время: Сегодня 20:21

Часовой пояс: GMT + 3



Вы не можете начинать темы
Вы не можете отвечать на сообщения
Вы не можете редактировать свои сообщения
Вы не можете удалять свои сообщения
Вы не можете голосовать в опросах
Вы не можете прикреплять файлы к сообщениям
Вы не можете скачивать файлы