Сегодня идет свободное скачивание без начисления Download

Прощай, Эммануэль / Goodbye Emmanuelle (1977) BDRip [H.264/720p-LQ] [Hi10P]

Ответить на тему
 
Автор
Сообщение

UndegraundMen ®

Стаж: 3 года 9 месяцев

Сообщений: 28329

Торрент-статистика

Пост 28-Дек-2013 23:00

[Цитировать]

Прощай, Эммануэль / Goodbye Emmanuelle (1977) BDRip [H.264/720p-LQ] [Hi10P]- Год выпуска: 1975
Жанр: Мелодрама, Драма, Эротика
Описание фильма: Она была рьяной искательницей эротических приключений, никогда не прекращающей своей неистовой гонки за наслаждением. И вдруг произошло совершенно невероятное. Исполненная сексуальной свободы, Эммануэль попадает в классическую, но парадоксальную ситуацию — ситуацию Любви с большой буквы. Страстно и безоглядно она порывает с привычной жизнью, влекомая этим неведомым доселе чувством.
Режиссер: Франсуа Летерье
Актеры: Сильвия Кристель, Умберто Орсини, Сильви Феннек, Жан-Пьер Бувье, Александра Стюарт, Ольга Жорж-Пико, Эрик Колен, Шарлотт Александра, Каролина Лоранс, Джек Аллен, Жак Дониоль-Валькроз, Грег Жермен, Боб Асклеф, Патрик Виктор
Качество видео: BDRip
Продолжительность: 01:38:10
Перевод: Любительский одноголосый
Оригинальная аудио дорожка: Французская
Язык субтитров: Английский
Вид субтитров: Вшитые

[url=/forum/viewtopic.php?t=708577]Эммануэль / Emmanuelle (1974)[/url]
[url=/forum/viewtopic.php?t=738069]Эммануэль 2 / Emmanuelle: L'antivierge (1975)[/url]
Формат: MKV
Видео: MPEG-4 AVC/H.264, 1280x544(2,35:1), 23,976fps, 2294 Кbps, 0.137bit/pixel
Аудио 2: AVO Russian, AC3, 2ch, 48 kHz, 192 kbps, (Одноголосый - автор неизвестен)
Аудио 4: DUB English, AC3, 2ch, 48 kHz, 192 kbps, (Дубляж)
Аудио 5: Francais, AC3, 2ch, 48 kHz, 192 kbps, (Оригинал)

MediaInfo

Общее
Полное имя : Прощай, Эммануэль (1977) BDRip-AVC.mkv
Формат : Matroska
Версия формата : Version 4 / Version 2
Размер файла : 2,01 Гбайт
Продолжительность : 1 ч. 38 м.
Общий поток : 2928 Кбит/сек
Название фильма : Прощай, Эммануэль / Goodbye Emmanuelle (1977) BDRip-AVC (Sinteros)
Программа кодирования : mkvmerge v6.6.0 ('The Edge Of The In Between') built on Dec 1 2013 17:55:00
Библиотека кодирования : libebml v1.3.0 + libmatroska v1.4.1
Attachment : Yes
Видео
Идентификатор : 1
Формат : AVC
Формат/Информация : Advanced Video Codec
Профиль формата : High [url=mailto:[email protected]][email protected][/url]
Параметр CABAC формата : Да
Параметр ReFrames формата : 11 кадров
Идентификатор кодека : V_MPEG4/ISO/AVC
Продолжительность : 1 ч. 38 м.
Битрейт : 2294 Кбит/сек
Ширина : 1280 пикселей
Высота : 544 пикселя
Соотношение сторон : 2,35:1
Режим частоты кадров : Постоянный
Частота кадров : 23,976 кадра/сек
Цветовое пространство : YUV
Субдискретизация насыщенности : 4:2:0
Битовая глубина : 10 бит
Тип развёртки : Прогрессивная
Бит/(Пиксели*Кадры) : 0.137
Размер потока : 1,57 Гбайт (78%)
Заголовок : MPEG-4 AVC/H.264, 1280x544(2,35:1), 23,976fps, 2294 Кbps, 0.137bit/pixel
Библиотека кодирования : x264 core 133 r2334 a3ac64b
Настройки программы : cabac=1 / ref=11 / deblock=1:-1:-1 / analyse=0x3:0x133 / me=tesa / subme=10 / psy=1 / psy_rd=1.00:0.15 / mixed_ref=1 / me_range=24 / chroma_me=1 / trellis=2 / 8x8dct=1 / cqm=0 / deadzone=21,11 / fast_pskip=1 / chroma_qp_offset=-3 / threads=12 / lookahead_threads=1 / sliced_threads=0 / nr=0 / decimate=1 / interlaced=0 / bluray_compat=0 / constrained_intra=0 / bframes=6 / b_pyramid=2 / b_adapt=2 / b_bias=0 / direct=1 / weightb=1 / open_gop=0 / weightp=2 / keyint=250 / keyint_min=23 / scenecut=40 / intra_refresh=0 / rc_lookahead=60 / rc=crf / mbtree=1 / crf=18.0 / qcomp=0.60 / qpmin=0 / qpmax=81 / qpstep=4 / ip_ratio=1.40 / aq=1:1.00
Язык : English
Default : Да
Forced : Нет
Аудио #1
Идентификатор : 2
Формат : AC-3
Формат/Информация : Audio Coding 3
Расширение режима : CM (complete main)
Параметр Endianness формата : Big
Идентификатор кодека : A_AC3
Продолжительность : 1 ч. 38 м.
Вид битрейта : Постоянный
Битрейт : 192 Кбит/сек
Каналы : 2 канала
Расположение каналов : Front: L R
Частота : 48,0 КГц
Битовая глубина : 16 бит
Метод сжатия : С потерями
Размер потока : 135 Мбайт (7%)
Заголовок : AVO Russian, AC3, 2ch, 48 kHz, 192 kbps, (Одноголосый - автор неизвестен)
Язык : Russian
Default : Да
Forced : Нет
Аудио #2
Идентификатор : 3
Формат : AC-3
Формат/Информация : Audio Coding 3
Расширение режима : CM (complete main)
Параметр Endianness формата : Big
Идентификатор кодека : A_AC3
Продолжительность : 1 ч. 38 м.
Вид битрейта : Постоянный
Битрейт : 192 Кбит/сек
Каналы : 2 канала
Расположение каналов : Front: L R
Частота : 48,0 КГц
Битовая глубина : 16 бит
Метод сжатия : С потерями
Размер потока : 135 Мбайт (7%)
Заголовок : DUB English, AC3, 2ch, 48 kHz, 192 kbps, (Дубляж)
Язык : English
Default : Нет
Forced : Нет
Аудио #3
Идентификатор : 4
Формат : AC-3
Формат/Информация : Audio Coding 3
Расширение режима : CM (complete main)
Параметр Endianness формата : Big
Идентификатор кодека : A_AC3
Продолжительность : 1 ч. 38 м.
Вид битрейта : Постоянный
Битрейт : 192 Кбит/сек
Каналы : 2 канала
Расположение каналов : Front: L R
Частота : 48,0 КГц
Битовая глубина : 16 бит
Метод сжатия : С потерями
Размер потока : 135 Мбайт (7%)
Заголовок : Francais, AC3, 2ch, 48 kHz, 192 kbps, (Оригинал)
Язык : French
Default : Нет
Forced : Нет
Текст
Идентификатор : 5
Формат : PGS
Режим смешивания : zlib
Идентификатор кодека : S_HDMV/PGS
Идентификатор кодека/Информация : The same subtitle format used on BDs/HD-DVDs
Язык : English
Default : Нет
Forced : Нет
Меню
00:00:00.000 : en:
00:06:00.360 : en:
00:14:02.883 : en:
00:22:44.654 : en:
00:28:31.876 : en:
00:34:09.380 : en:
00:40:38.060 : en:
00:48:52.137 : en:
00:54:04.866 : en:
01:00:33.755 : en:
01:09:06.976 : en:
01:14:08.819 : en:
01:19:28.472 : en:
01:24:42.035 : en:
01:32:07.063 : en:
01:36:32.578 : en:
Примечание: Рип в High 10 Profile, в настоящее время не поддерживается большинством аппаратных проигрывателей, поэтому предназначен исключительно для воспроизведения на ПК.
Для корректного воспроизведения может потребоваться обновление ПО.
Скриншоты:                  Время раздачи: 24/7 (жду до 10-15 скачавших, а дальше могу уйти с радачи)
Вне форума [Профиль] [ЛС]
Показать сообщения:    
Ответить на тему

Текущее время: Сегодня 22:46

Часовой пояс: GMT + 3



Вы не можете начинать темы
Вы не можете отвечать на сообщения
Вы не можете редактировать свои сообщения
Вы не можете удалять свои сообщения
Вы не можете голосовать в опросах
Вы не можете прикреплять файлы к сообщениям
Вы не можете скачивать файлы