Сегодня идет свободное скачивание без начисления Download

Прощай, Эммануэль / Goodbye Emmanuelle (1977) BDRemux [1080p]

Ответить на тему
 
Автор
Сообщение

UndegraundMen ®

Стаж: 3 года 9 месяцев

Сообщений: 28329

Торрент-статистика

Пост 28-Дек-2013 23:02

[Цитировать]

Прощай, Эммануэль / Goodbye Emmanuelle (1977) BDRemux [1080p]- Год выпуска: 1975
Жанр: Мелодрама, Драма, Эротика
Описание фильма: Она была рьяной искательницей эротических приключений, никогда не прекращающей своей неистовой гонки за наслаждением. И вдруг произошло совершенно невероятное. Исполненная сексуальной свободы, Эммануэль попадает в классическую, но парадоксальную ситуацию — ситуацию Любви с большой буквы. Страстно и безоглядно она порывает с привычной жизнью, влекомая этим неведомым доселе чувством.
Режиссер: Франсуа Летерье
Актеры: Сильвия Кристель, Умберто Орсини, Сильви Феннек, Жан-Пьер Бувье, Александра Стюарт, Ольга Жорж-Пико, Эрик Колен, Шарлотт Александра, Каролина Лоранс, Джек Аллен, Жак Дониоль-Валькроз, Грег Жермен, Боб Асклеф, Патрик Виктор
Качество видео: BDRemux
Продолжительность: 01:38:10
Перевод: Любительский одноголосый
Оригинальная аудио дорожка: Французская
Язык субтитров: Английский
Вид субтитров: Вшитые

Формат: MKV
Видео: MPEG-4 AVC, 1920x1080(16:9), 23,976fps, ~ 19993 Кbps
Аудио 2: AVO Russian, AC3, 2ch, 48 kHz, 192 kbps, (Одноголосый - автор неизвестен)
Аудио 4: DUB English, DTS, 2ch, 48 kHz, 768 kbps 16-bit, (Дубляж)
Аудио 5: Francais, DTS-HD, 2ch, 48 kHz, 1575 kbps 24-bit, [DTS Core: 2.0 48 kHz 1509 kbps 24-bit], (Оригинал)

MediaInfo

Общее
Полное имя : Прощай, Эммануэль (1977) BDRemux.mkv
Формат : Matroska
Версия формата : Version 4 / Version 2
Размер файла : 15,4 Гбайт
Продолжительность : 1 ч. 38 м.
Режим общего битрейта : Переменный
Общий поток : 22,5 Мбит/сек
Название фильма : Прощай, Эммануэль / Goodbye Emmanuelle (1977) BDRemux 1080p (Sinteros)
Программа кодирования : mkvmerge v6.6.0 ('The Edge Of The In Between') built on Dec 1 2013 17:55:00
Библиотека кодирования : libebml v1.3.0 + libmatroska v1.4.1
Attachment : Yes
Видео
Идентификатор : 1
Формат : AVC
Формат/Информация : Advanced Video Codec
Профиль формата : [url=mailto:[email protected]][email protected][/url]
Параметр CABAC формата : Да
Параметр ReFrames формата : 4 кадра
Идентификатор кодека : V_MPEG4/ISO/AVC
Продолжительность : 1 ч. 38 м.
Вид битрейта : Переменный
Максимальный битрейт : 33,0 Мбит/сек
Ширина : 1920 пикселей
Высота : 1080 пикселей
Соотношение сторон : 16:9
Режим частоты кадров : Постоянный
Частота кадров : 23,976 кадра/сек
Цветовое пространство : YUV
Субдискретизация насыщенности : 4:2:0
Битовая глубина : 8 бит
Тип развёртки : Прогрессивная
Заголовок : MPEG-4 AVC, 1920x1080(16:9), 23,976fps, ~ 19993 Кbps
Язык : French
Default : Да
Forced : Нет
Аудио #1
Идентификатор : 2
Формат : AC-3
Формат/Информация : Audio Coding 3
Расширение режима : CM (complete main)
Параметр Endianness формата : Big
Идентификатор кодека : A_AC3
Продолжительность : 1 ч. 38 м.
Вид битрейта : Постоянный
Битрейт : 192 Кбит/сек
Каналы : 2 канала
Расположение каналов : Front: L R
Частота : 48,0 КГц
Битовая глубина : 16 бит
Метод сжатия : С потерями
Размер потока : 135 Мбайт (1%)
Заголовок : AVO Russian, AC3, 2ch, 48 kHz, 192 kbps, (Одноголосый - автор неизвестен)
Язык : Russian
Default : Да
Forced : Нет
Аудио #2
Идентификатор : 3
Формат : DTS
Формат/Информация : Digital Theater Systems
Режим : 16
Параметр Endianness формата : Big
Идентификатор кодека : A_DTS
Продолжительность : 1 ч. 38 м.
Вид битрейта : Постоянный
Битрейт : 768 Кбит/сек
Каналы : 2 канала
Расположение каналов : Front: L R
Частота : 48,0 КГц
Битовая глубина : 16 бит
Метод сжатия : С потерями
Размер потока : 539 Мбайт (3%)
Заголовок : DUB English, DTS, 2ch, 48 kHz, 768 kbps 16-bit, (Дубляж)
Язык : English
Default : Нет
Forced : Нет
Аудио #3
Идентификатор : 4
Формат : DTS
Формат/Информация : Digital Theater Systems
Профиль формата : MA / Core
Режим : 16
Параметр Endianness формата : Big
Идентификатор кодека : A_DTS
Продолжительность : 1 ч. 38 м.
Вид битрейта : Переменный
Битрейт : Неизвестно / 1509 Кбит/сек
Каналы : 2 канала
Расположение каналов : Front: L R
Частота : 48,0 КГц
Битовая глубина : 24 бит
Метод сжатия : Без потерь / Lossy
Заголовок : Francais, DTS-HD, 2ch, 48 kHz, 1575 kbps 24-bit, [DTS Core: 2.0 48 kHz 1509 kbps 24-bit], (Оригинал)
Язык : French
Default : Нет
Forced : Нет
Текст
Идентификатор : 5
Формат : PGS
Режим смешивания : zlib
Идентификатор кодека : S_HDMV/PGS
Идентификатор кодека/Информация : The same subtitle format used on BDs/HD-DVDs
Заголовок : English
Язык : English
Default : Нет
Forced : Нет
Меню
00:00:00.000 : en:
00:06:00.360 : en:
00:14:02.883 : en:
00:22:44.654 : en:
00:28:31.876 : en:
00:34:09.380 : en:
00:40:38.060 : en:
00:48:52.137 : en:
00:54:04.866 : en:
01:00:33.755 : en:
01:09:06.976 : en:
01:14:08.819 : en:
01:19:28.472 : en:
01:24:42.035 : en:
01:32:07.063 : en:
01:36:32.578 : en:
Скриншоты:                    
Вне форума [Профиль] [ЛС]
Показать сообщения:    
Ответить на тему

Текущее время: Сегодня 14:53

Часовой пояс: GMT + 3



Вы не можете начинать темы
Вы не можете отвечать на сообщения
Вы не можете редактировать свои сообщения
Вы не можете удалять свои сообщения
Вы не можете голосовать в опросах
Вы не можете прикреплять файлы к сообщениям
Вы не можете скачивать файлы