Today is a free download without charge Download

(Synthpop) Depeche Mode - Everything Counts (INT 826.837) - 1983, FLAC (image+.cue), lossless

Reply to topic
 
Author
Message

BiteFly ®

Gender:

Longevity: 8 years 1 month

Posts: 2138

Location: Germany-Russia

Торрент-статистика

Post 22-Nov-2011 13:24

[Quote]

Depeche Mode - Everything Counts- Жанр: Synthpop
Год релиза: 1983
Год выпуска диска: 1987
Лэйбл / №: Mute Records / INT 826.837
Производитель диска: W. Germany
Аудио кодек: FLAC
Тип рипа: image+.cue
Битрейт аудио: lossless
Продолжительность: 00:25:54
Трэклист:
01 - Everything Counts [Original 7'' Mix] (3:58)
02 - New Life [Live] (4:10)
03 - Boys Say Go! [Live] (2:35)
04 - Nothing To Fear [Live] (4:20)
05 - The Meaning Of Love [Live] (3:15)
06 - Everything Counts [Original 12'' Mix] (7:20)

EAC Log

Exact Audio Copy V0.99 prebeta 5 from 4. May 2011
EAC extraction logfile from 16. January 2011, 22:06
Depeche Mode / Everything Counts (INT 826.837) (MCD) (1987)
Used drive : PIONEER DVD-RW DVR-218L Adapter: 1 ID: 0
Read mode : Secure
Utilize accurate stream : Yes
Defeat audio cache : Yes
Make use of C2 pointers : No
Read offset correction : 6
Overread into Lead-In and Lead-Out : No
Fill up missing offset samples with silence : Yes
Delete leading and trailing silent blocks : No
Null samples used in CRC calculations : Yes
Used interface : Native Win32 interface for Win NT & 2000
Used output format : User Defined Encoder
Selected bitrate : 320 kBit/s
Quality : High
Add ID3 tag : No
Command line compressor : C:\Program Files\Exact Audio Copy\Flac\flac.exe
Additional command line options : -8 -V -T "ARTIST=%a" -T "TITLE=%t" -T "ALBUM=%g" -T "DATE=%y" -T "TRACKNUMBER=%n" -T "GENRE=%m" -T "COMMENT=EAC FLAC -8" %s
TOC of the extracted CD
Track | Start | Length | Start sector | End sector
---------------------------------------------------------
1 | 0:00.00 | 4:00.00 | 0 | 17999
2 | 4:00.00 | 4:12.32 | 18000 | 36931
3 | 8:12.32 | 2:36.23 | 36932 | 48654
4 | 10:48.55 | 4:28.20 | 48655 | 68774
5 | 15:17.00 | 3:17.00 | 68775 | 83549
6 | 18:34.00 | 7:20.05 | 83550 | 116554
Range status and errors
Selected range
Filename F:\IDE\Depeche Mode - Everything Counts (INT 826.837) (MCD) (1987).wav
Peak level 100.0 %
Range quality 99.9 %
Test CRC E340F514
Copy CRC E340F514
Copy OK
No errors occurred
AccurateRip summary
Track 1 accurately ripped (confidence 24) [D598ABA4]
Track 2 accurately ripped (confidence 24) [CAF0BFAE]
Track 3 accurately ripped (confidence 24) [998468EC]
Track 4 accurately ripped (confidence 24) [30B82ED9]
Track 5 accurately ripped (confidence 24) [ECAF4F8E]
Track 6 accurately ripped (confidence 24) [03D28B39]
All tracks accurately ripped
End of status report

_________________
Other forum [Profile] [PM]
Display posts from previous:    
Reply to topic

The time now is: Today 05:00

All times are GMT + 3 Hours



You cannot post new topics in this forum
You cannot reply to topics in this forum
You cannot edit your posts in this forum
You cannot delete your posts in this forum
You cannot vote in polls in this forum
You cannot attach files in this forum
You cannot download files in this forum