Сегодня идет свободное скачивание без начисления Download

Принц Валиант / Prince Valiant ( Генри Хэтэуэй) [1954, приключения, мелодрама, DVDRip] VO

Ответить на тему
 
Автор
Сообщение

O.S.A. ®

Пол:

Стаж: 3 года 1 месяц

Сообщений: 4520

Откуда: СССР

Торрент-статистика

Пост 31-Дек-2013 10:35

[Цитировать]

--Принц Валиант / Prince Valiant-- Год выпуска: 1954
Страна: США
Жанр: приключения, мелодрама
Продолжительность: 01:40:08
Перевод: Igor2138 в редакции Kolobroad
Озвучка: одноголосая закадровая Kolobroad-Режиссер: Генри Хэтэуэй-В ролях: Джеймс Мейсон, Джанет Ли, Роберт Вагнер, Дебра Пейджит, Стерлинг Хейден, Виктор МакЛаглен, Дональд Крисп, Брайан Ахерн, Бэрри Джонс, Мэри Филипс...-Описание: Валиант, сын свергнутого с престола короля Скандии, отправляется ко двору короля Артура в надежде овладеть воинскими науками и вернуть трон отца. По дороге в Камелот он замечает неизвестного рыцаря, закованного в черные латы, спешащего на встречу с викингами. Он становится оруженосцем одного из рыцарей Круглого Стола сэра Говейна. Ему предстоит столкнуться с верностью и предательством, сражаться за свою любовь на рыцарских турнирах и быть готовым отказаться от неё ради друга, участвовать в неравных схватках и отчаянном штурме замка, вершить возмездие, имея лишь один старинный меч, который никогда не звенит в руках человека без чести.-Информация о релизе: Идея перевода и исходные материалы - Larisa547
При озвучивании перевод был отредактирован Kolobroad с целью оптимизации длительности диалогов.-- --Качество: DVDRip
Формат: AVI
Видео кодек: XviD
Аудио кодек: АС3
Видео: 720x288 (2.50:1), 23.976 fps, XviD build 50, ~1757 kbps avg, 0.353 bit/pixel
Аудио: 48.0 kHz, AC3 Dolby Digital, 2/0 (L,R) ch, ~192.00 kbps avg
Субтитры: нет--

Media Info

Общее
Полное имя : E:\Мои раздачи\Принц Валиант\Prince_Valiant.avi
Формат : AVI
Формат/Информация : Audio Video Interleave
Размер файла : 1,37 Гбайт
Продолжительность : 1 ч. 40 м.
Общий поток : 1958 Кбит/сек
Программа кодирования : VirtualDubMod 1.5.10.2 (build 2540/release)
Библиотека кодирования : VirtualDubMod build 2540/release
Видео
Идентификатор : 0
Формат : MPEG-4 Visual
Профиль формата : Advanced [email protected]
Параметр BVOP формата : Нет
Параметр QPel формата : Нет
Параметр GMC формата : Без точки перехода
Параметр матрицы формата : Выборочная
Идентификатор кодека : XVID
Идентификатор кодека/Подсказка : XviD
Продолжительность : 1 ч. 40 м.
Битрейт : 1757 Кбит/сек
Ширина : 720 пикселей
Высота : 288 пикселей
Соотношение сторон : 2,500
Частота кадров : 23,976 кадра/сек
Цветовое пространство : YUV
Субдискретизация насыщенности : 4:2:0
Битовая глубина : 8 бит
Тип развёртки : Прогрессивная
Метод сжатия : С потерями
Бит/(Пиксели*Кадры) : 0.353
Размер потока : 1,23 Гбайт (90%)
Библиотека кодирования : XviD 1.2.1 (UTC 2008-12-04)
Аудио
Идентификатор : 1
Формат : AC-3
Формат/Информация : Audio Coding 3
Расширение режима : CM (complete main)
Параметр Endianness формата : Big
Идентификатор кодека : 2000
Продолжительность : 1 ч. 40 м.
Вид битрейта : Постоянный
Битрейт : 192 Кбит/сек
Каналы : 2 канала
Расположение каналов : Front: L R
Частота : 48,0 КГц
Битовая глубина : 16 бит
Метод сжатия : С потерями
Размер потока : 138 Мбайт (10%)
Выравнивание : Разделение по промежуткам
Продолжительность промежутка : 42 мс. (1,00 видеокадр)
Время предзагрузки промежутка : 500 мс.

Скриншоты

         
-- --

_________________

===============================
IGNOSCITO SAEPE ALTERI, NUNQUAM TIBI
Вне форума [Профиль] [ЛС]
Похожие темы
Форум Тема Автор Торрент Отв. Посл. сообщение
./templates/default/images/folder_dl.gif Обучающее видео Семинар 2 от 15.05.12 Строим бесконфликтные отношения в коллективе. Тандемный принцип [2012, методология управления и корпоративная культура, DVDRip, RUS] (Видеоурок) Omen
1 | 0

0 | 571

4

2012-12-15 00:56
Omen Последнее
./templates/default/images/folder_dl.gif Психология, Тренинг, Саморазвитие Блейн Ли | Принцип власти. Влияние с уважением и честью (2007) [DJVU] sashau
1 | 0

0 | 348

3

2014-07-23 12:32
sashau Последнее
./templates/default/images/folder_dl.gif Обучающее видео Lynda.com | Основные принципы дизайна логотипа (2013) PCRec [H.264/720p] moralis
1 | 0

0 | 152

7

2016-03-07 22:15
moralis Последнее
Показать сообщения:    
Ответить на тему

Текущее время: Сегодня 00:21

Часовой пояс: GMT + 3



Вы не можете начинать темы
Вы не можете отвечать на сообщения
Вы не можете редактировать свои сообщения
Вы не можете удалять свои сообщения
Вы не можете голосовать в опросах
Вы не можете прикреплять файлы к сообщениям
Вы не можете скачивать файлы