Today is a free download without charge Download

Nik Bartsch\'s Ronin - Live (2012) 2CD [FLAC|Lossless]

Reply to topic
 
Author
Message

UndegraundMen ®

Longevity: 6 years 9 months

Posts: 25145

Торрент-статистика

Post 31-Dec-2013 11:01

[Quote]

Nik Bartsch's Ronin - Live (2012)- Год: 2012
Жанр: Jazz, ECM
Продолжительность: 01:45:03
Кодек: FLAC (image+.cue, no .log)
Битрейт: Lossless
Источник: Web
Издатель (лейбл): ECM Records
Номер по каталогу: ECM 2302/03
Персонал:
Nik Bärtsch: piano
Sha: alto saxophone, bass clarinet
Björn Meyer: bass
Thomy Jordi: bass (on Modul 55)
Kaspar Rast: drums
Andi Pupato: percussion

Дополнительная информация:

ECMPlayer

Disk 1

Продолжительность - 01:00:03
Треклист:
01. Modul 41_17 (Lörrach) (16:39)
02. Modul 35 (Leipzig) (11:31)
03. Modul 42 (Wien) (8:09)
04. Modul 17 (Tokyo) (8:59)
05. Modul 22 (Amsterdam) (14:45)

Отчёт auCDtect Task manager:

Код:
-----------------------
DON'T MODIFY THIS FILE
-----------------------
PERFORMER: auCDtect Task Manager, ver. 1.6.0 RC1 build 1.6.0.1
Copyright (c) 2008-2010 y-soft. All rights reserved
http://y-soft.org
ANALYZER: auCDtect: CD records authenticity detector, version 0.8.2
Copyright (c) 2004 Oleg Berngardt. All rights reserved.
Copyright (c) 2004 Alexander Djourik. All rights reserved.
FILE: Nik Bartsch's Ronin - Live (CD1).flac
  Size: 323593533 Hash: 001460BEB8BE78690AF19F01E776633D Accuracy: -m0
  Conclusion: CDDA 100%
  Signature: C3EF7D1F0BE77AF53E50667106C06BBB389C18AA

Содержимое индексной карты:

Код:
REM GENRE Jazz
REM DATE 2012
REM COMMENT ECM 2302
PERFORMER "Nik Bärtsch's Ronin"
TITLE "Live"
FILE "Nik Bartsch's Ronin - Live (CD1).flac" WAVE
  TRACK 01 AUDIO
    TITLE "Modul 41_17 (Lörrach)"
    INDEX 01 00:00:00
  TRACK 02 AUDIO
    TITLE "Modul 35 (Leipzig)"
    INDEX 01 16:38:48
  TRACK 03 AUDIO
    TITLE "Modul 42 (Wien)"
    INDEX 01 28:10:00
  TRACK 04 AUDIO
    TITLE "Modul 17 (Tokyo)"
    INDEX 01 36:19:05
  TRACK 05 AUDIO
    TITLE "Modul 22 (Amsterdam)"
    INDEX 01 45:17:49

Dynamic Range Meter:

Код:
foobar2000 1.3 beta 1 / Замер динамического диапазона (DR) 1.1.1
Дата отчёта: 2013-12-15 17:01:37
--------------------------------------------------------------------------------
Анализ:   Nik Bärtsch's Ronin / Live
--------------------------------------------------------------------------------
DR         Пики           RMS        Продолжительность трека
--------------------------------------------------------------------------------
DR10      -0.07 дБ   -13.24 дБ     16:39 01-Modul 41_17 (Lörrach)
DR10      -0.12 дБ   -13.97 дБ     11:31 02-Modul 35 (Leipzig)
DR14      -0.26 дБ   -19.81 дБ      8:09 03-Modul 42 (Wien)
DR11      -0.50 дБ   -14.88 дБ      8:59 04-Modul 17 (Tokyo)
DR12      -0.08 дБ   -15.94 дБ     14:45 05-Modul 22 (Amsterdam)
--------------------------------------------------------------------------------
Количество треков:   5
Реальные значения DR:   DR11
Частота:    44100 гц
Каналов:    2
Бит на сэмпл:      16
Битрейт:    718 кбит/с
Кодек:      FLAC
================================================================================

Disk 2

Продолжительность - 00:45:00
Треклист:
01. Modul 45 (Mannheim) (13:12)
02. Modul 48 (Gateshead) (8:37)
03. Modul 47 (Mannheim) (13:11)
04. Modul 55 (Salzau) (10:00)

Отчёт auCDtect Task manager:

Код:
-----------------------
DON'T MODIFY THIS FILE
-----------------------
PERFORMER: auCDtect Task Manager, ver. 1.6.0 RC1 build 1.6.0.1
Copyright (c) 2008-2010 y-soft. All rights reserved
http://y-soft.org
ANALYZER: auCDtect: CD records authenticity detector, version 0.8.2
Copyright (c) 2004 Oleg Berngardt. All rights reserved.
Copyright (c) 2004 Alexander Djourik. All rights reserved.
FILE: Nik Bartsch's Ronin - Live (CD2).flac
  Size: 233323096 Hash: 78274996883CEB0F4A4C144900E07219 Accuracy: -m0
  Conclusion: CDDA 100%
  Signature: C86C3A087FE3F758FEF42A76F73B535A55A4C977


Содержимое индексной карты:

Код:
REM GENRE Jazz
REM DATE 2012
REM COMMENT ECM 2303
PERFORMER "Nik Bärtsch's Ronin"
TITLE "Live"
FILE "Nik Bartsch's Ronin - Live (CD2).flac" WAVE
  TRACK 01 AUDIO
    TITLE "Modul 45 (Mannheim)"
    INDEX 01 00:00:00
  TRACK 02 AUDIO
    TITLE "Modul 48 (Gateshead)"
    INDEX 01 13:11:43
  TRACK 03 AUDIO
    TITLE "Modul 47 (Mannheim)"
    INDEX 01 21:48:54
  TRACK 04 AUDIO
    TITLE "Modul 55 (Salzau)"
    INDEX 01 34:59:67

Dynamic Range Meter:

Код:
foobar2000 1.3 beta 1 / Замер динамического диапазона (DR) 1.1.1
Дата отчёта: 2013-12-15 17:04:28
--------------------------------------------------------------------------------
Анализ:   Nik Bärtsch's Ronin / Live
--------------------------------------------------------------------------------
DR         Пики           RMS        Продолжительность трека
--------------------------------------------------------------------------------
DR10      -0.11 дБ   -14.54 дБ     13:12 01-Modul 45 (Mannheim)
DR11      -0.16 дБ   -15.71 дБ      8:37 02-Modul 48 (Gateshead)
DR12      -0.16 дБ   -16.45 дБ     13:11 03-Modul 47 (Mannheim)
DR11      -0.12 дБ   -14.95 дБ     10:00 04-Modul 55 (Salzau)
--------------------------------------------------------------------------------
Количество треков:   4
Реальные значения DR:   DR11
Частота:    44100 гц
Каналов:    2
Бит на сэмпл:      16
Битрейт:    691 кбит/с
Кодек:      FLAC
================================================================================
Время раздачи: 24/7
Other forum [Profile] [PM]
Display posts from previous:    
Reply to topic

The time now is: Today 02:41

All times are GMT + 3 Hours



You cannot post new topics in this forum
You cannot reply to topics in this forum
You cannot edit your posts in this forum
You cannot delete your posts in this forum
You cannot vote in polls in this forum
You cannot attach files in this forum
You cannot download files in this forum