Сегодня идет свободное скачивание без начисления Download

Медведь / L'ours (Жан-Жак Анно) [1988, драма, приключения, семейный, BDRip 720p] VO

Ответить на тему
 
Автор
Сообщение

O.S.A. ®

Пол:

Стаж: 3 года 1 месяц

Сообщений: 4520

Откуда: СССР

Торрент-статистика

Пост 31-Дек-2013 11:09

[Цитировать]

--Медведь / L'ours-- Год выхода: 1988
Страна: Франция, США
Производство: Price, Renn Productions
Продолжительность: 01:36:24
Перевод: Профессиональный (одноголосый закадровый)
Жанр: драма, приключения, семейный-Режиссер: Жан-Жак Анно-В ролях: медведь Барт, медведь Юк, Чеки Карио, Джек Уоллес, Андре Лакомб...-О фильме: Среди прекрасных и величественных пейзажей Британской Колумбии случилась трогательная история о медвежонке, потерявшем свою мать и предоставленным самому себе, в то время как двое охотников продолжают рыскать по лесу в поисках добычи.
Судьба сводит вместе осиротевшего малыша и огромного раненого медведя. Непросто складываются их взаимоотношения, но охотники с ружьями и злыми собаками оказываются куда страшнее. Столкновение людей и животных неизбежно.
А зритель фильма оказывается в «медвежьей шкуре» и наблюдает за людьми с позиции главного героя.-- --Качество: BDRip 720p (Исходник: Blu-Ray Disc)
Формат: MKV
Видео кодек: H.264
Аудио кодек: AC3
Видео: 1280x546 (2.35:1), 23.976 fps, MPEG-4 AVC, ~5590 kbps avg, 0.334 bit/pixel
Аудио #1: [RUS] 48.0 kHz, AC3 Dolby Digital, 3/2 (L,C,R,l,r) + LFE ch, ~448.00 kbps avg
Аудио #2: [FRE] 48.0 kHz, AC3 Dolby Digital, 3/2 (L,C,R,l,r) + LFE ch, ~448.00 kbps avg
Субтитры: русские (встроенные, отключаемые)
Навигация по главам: есть--

Награды

Оскар, 1990 год
Номинации (1):
Лучший монтаж- Британская академия, 1990 год
Номинации (1):
Лучшая работа оператора- Сезар, 1989 год
Победитель (1):
Лучший режиссер (Жан-Жак Анно)
Номинации (4):
Лучший фильм
Лучшая работа оператора
Лучший звук
Лучший постер

Media Info

Общее
Уникальный идентификатор : 221164891549551064832849583006101177753 (0xA662CF08D06D957889E4542DA1DE8599)
Полное имя : L'Ours.1988.BDRip.720p.Rus.Fre.mkv
Формат : Matroska
Версия формата : Version 2
Размер файла : 4,37 Гбайт
Продолжительность : 1 ч. 36 м.
Общий поток : 6486 Кбит/сек
Название фильма : Медведь / L'ours (1988)
Дата кодирования : UTC 2013-08-14 13:00:18
Программа кодирования : mkvmerge v5.8.0 ('No Sleep / Pillow') built on Sep 2 2012 15:37:04
Библиотека кодирования : libebml v1.2.3 + libmatroska v1.3.0
Видео
Идентификатор : 1
Формат : AVC
Формат/Информация : Advanced Video Codec
Профиль формата : [email protected]
Параметр CABAC формата : Да
Параметр ReFrames формата : 10 кадров
Идентификатор кодека : V_MPEG4/ISO/AVC
Продолжительность : 1 ч. 36 м.
Битрейт : 5590 Кбит/сек
Ширина : 1280 пикселей
Высота : 546 пикселей
Соотношение сторон : 2,35:1
Частота кадров : 23,976 кадра/сек
Цветовое пространство : YUV
Субдискретизация насыщенности : 4:2:0
Битовая глубина : 8 бит
Тип развёртки : Прогрессивная
Бит/(Пиксели*Кадры) : 0.334
Размер потока : 3,68 Гбайт (84%)
Заголовок : Release by AlexKa
Библиотека кодирования : x264 core 135 r2345 f0c1c53
Настройки программы : cabac=1 / ref=10 / deblock=1:-3:-3 / analyse=0x3:0x133 / me=umh / subme=9 / psy=1 / psy_rd=1.00:0.10 / mixed_ref=1 / me_range=32 / chroma_me=1 / trellis=2 / 8x8dct=1 / cqm=0 / deadzone=21,11 / fast_pskip=0 / chroma_qp_offset=-3 / threads=3 / lookahead_threads=1 / sliced_threads=0 / nr=0 / decimate=0 / interlaced=0 / bluray_compat=0 / constrained_intra=0 / bframes=6 / b_pyramid=2 / b_adapt=2 / b_bias=0 / direct=3 / weightb=1 / open_gop=0 / weightp=2 / keyint=240 / keyint_min=23 / scenecut=40 / intra_refresh=0 / rc=2pass / mbtree=0 / bitrate=5590 / ratetol=1.0 / qcomp=0.60 / qpmin=0 / qpmax=69 / qpstep=4 / cplxblur=20.0 / qblur=0.5 / ip_ratio=1.40 / pb_ratio=1.30 / aq=1:0.80
Язык : French
Аудио #1
Идентификатор : 2
Формат : AC-3
Формат/Информация : Audio Coding 3
Расширение режима : CM (complete main)
Идентификатор кодека : A_AC3
Продолжительность : 1 ч. 36 м.
Вид битрейта : Постоянный
Битрейт : 448 Кбит/сек
Каналы : 6 каналов
Расположение каналов : Front: L C R, Side: L R, LFE
Частота : 48,0 КГц
Битовая глубина : 16 бит
Метод сжатия : С потерями
Размер потока : 309 Мбайт (7%)
Заголовок : Rus
Язык : Russian
Аудио #2
Идентификатор : 3
Формат : AC-3
Формат/Информация : Audio Coding 3
Расширение режима : CM (complete main)
Идентификатор кодека : A_AC3
Продолжительность : 1 ч. 36 м.
Вид битрейта : Постоянный
Битрейт : 448 Кбит/сек
Каналы : 6 каналов
Расположение каналов : Front: L C R, Side: L R, LFE
Частота : 48,0 КГц
Битовая глубина : 16 бит
Метод сжатия : С потерями
Размер потока : 309 Мбайт (7%)
Заголовок : Fre
Язык : French
Текст
Идентификатор : 4
Формат : UTF-8
Идентификатор кодека : S_TEXT/UTF8
Идентификатор кодека/Информация : UTF-8 Plain Text
Заголовок : Rus
Язык : Russian
Меню
00:00:00.000 : fr:Youk seul au monde
00:08:10.323 : fr:Vers l'aventure
00:13:20.925 : fr:Les chasseurs sur la piste de Kaar
00:26:00.392 : fr:L'orphelin er l'éclopé
00:34:10.757 : fr:A deux sous la lune
00:39:02.548 : fr:Comme père et fils
00:44:47.976 : fr:Kaar, la belle, Youk et les champignons
00:52:38.321 : fr:Traqué par la meute
01:02:15.982 : fr:La compagnie des hommes
01:13:27.403 : fr:La face à face
01:22:14.054 : fr:Youk de nouveau seul
01:25:43.805 : fr:Poursuivi par le puma
01:29:53.137 : fr:Une tanière dans l'immensité
01:32:53.651 : fr:Générique de fin

x264

x264 [info]: frame I:1013 Avg QP:15.68 size:134202
x264 [info]: frame P:30010 Avg QP:17.89 size: 53522
x264 [info]: frame B:107661 Avg QP:19.93 size: 21347

Скриншоты

       
-- --

_________________

===============================
IGNOSCITO SAEPE ALTERI, NUNQUAM TIBI
Вне форума [Профиль] [ЛС]
Похожие темы
Форум Тема Автор Торрент Отв. Посл. сообщение
./templates/default/images/folder_dl.gif Обучающее видео Василий Медведев | Хитрости компьютера (2013) [unpacked] Omen
1 | 0

0 | 1504

49

2014-01-29 20:10
Omen Последнее
./templates/default/images/folder_dl.gif Психология, Тренинг, Саморазвитие Ирина Медведева, Татьяна Шишова | Ребенок и компьютер (2011) [MP3] O.S.A.
1 | 0

1 | 699

2

2014-08-18 11:17
O.S.A. Последнее
./templates/default/images/folder_dl.gif Видеотренинги Александр Медведев | 10 ноу-хау на съёмке, до которых вы не додумались (2013) PCRec Omen
1 | 0

0 | 48

26

2015-04-03 20:51
Omen Последнее
Показать сообщения:    
Ответить на тему

Текущее время: Сегодня 09:46

Часовой пояс: GMT + 3



Вы не можете начинать темы
Вы не можете отвечать на сообщения
Вы не можете редактировать свои сообщения
Вы не можете удалять свои сообщения
Вы не можете голосовать в опросах
Вы не можете прикреплять файлы к сообщениям
Вы не можете скачивать файлы