Сегодня идет свободное скачивание без начисления Download

Ярость / The Fury (1978) BDRip

Ответить на тему
 
Автор
Сообщение

UndegraundMen ®

Стаж: 3 года 9 месяцев

Сообщений: 28329

Торрент-статистика

Пост 01-Янв-2014 23:00

[Цитировать]

Ярость / The Fury (1978) BDRip-«Опыт применения террора и неизвестность»- Год выпуска: 1978
Жанр: ужасы, фантастика, триллер, драма
Описание фильма:
Бывший агент ЦРУ Питер Сандза, спокойно отдыхающий со своим сыном Робином на Ближнем Востоке, переживает шок, когда мальчика неожиданно похищают. Чтобы выйти на его след, Питер обращается за помощью к девушке-экстрасенсу Джиллиан Беллевер. То, что им удается узнать, поначалу никак не укладывается у Питера в голове…
Режиссер: Брайан Де Пальма
Актеры: Кирк Дуглас, Джон Кассаветис, Кэрри Снодгресс, Чарльз Дёрнинг, Эми Ирвинг, Фиона Льюис, Эндрю Стивенс, Кэрол Ив Россен, Рутаня Олда, Джойс Истон
Продолжительность: 01:57:57
Качество видео: BDRip
Перевод: Профессиональный (многоголосый закадровый)R5

Дата мировой премьеры: 10 марта 1978
Дата выхода DVD релиза: 5 февраля 2009
Видеокодек: Xvid
Битрейт видео: ~1569 kbps
Размер кадра: 720x384
Аудиокодек: AC3 2.0
Битрейт аудио: 192 kbps, 2ch

MI

Общее
Полное имя : D:\Рипы\The.Fury.1978.BDRip.avi
Формат : AVI
Формат/Информация : Audio Video Interleave
Размер файла : 1,46 Гбайт
Продолжительность : 1 ч. 57 м.
Общий поток : 1770 Кбит/сек
Название фильма : The.Fury.1978.BDRip
Режиссёр : rip by maygli
Программа кодирования : VirtualDubModRus 1.5.10.2 (build 2542/release)
Правообладатель : ... (RG Rulya74)
Видео
Идентификатор : 0
Формат : MPEG-4 Visual
Профиль формата : Advanced [email protected]
Параметр BVOP формата : 1
Параметр QPel формата : Нет
Параметр GMC формата : Без точки перехода
Параметр матрицы формата : Выборочная
Идентификатор кодека : XVID
Идентификатор кодека/Подсказка : XviD
Продолжительность : 1 ч. 57 м.
Битрейт : 1569 Кбит/сек
Ширина : 720 пикселей
Высота : 384 пикселя
Соотношение сторон : 1,85:1
Частота кадров : 23,976 кадра/сек
Цветовое пространство : YUV
Субдискретизация насыщенности : 4:2:0
Битовая глубина : 8 бит
Тип развёртки : Прогрессивная
Метод сжатия : С потерями
Бит/(Пиксели*Кадры) : 0.237
Размер потока : 1,29 Гбайт (89%)
Библиотека кодирования : XviD 65
Аудио
Идентификатор : 1
Формат : AC-3
Формат/Информация : Audio Coding 3
Расширение режима : CM (complete main)
Параметр Endianness формата : Big
Идентификатор кодека : 2000
Продолжительность : 1 ч. 57 м.
Вид битрейта : Постоянный
Битрейт : 192 Кбит/сек
Каналы : 2 канала
Расположение каналов : Front: L R
Частота : 48,0 КГц
Битовая глубина : 16 бит
Метод сжатия : С потерями
Размер потока : 162 Мбайт (11%)
Выравнивание : Разделение по промежуткам
Продолжительность промежутка : 42 мс. (1,00 видеокадр)
Время предзагрузки промежутка : 500 мс.
Заголовок : Профессиональный (многоголосый закадровый) R5
Скриншоты:
           
Время раздачи: с 10:00 до 22:30
Вне форума [Профиль] [ЛС]
Похожие темы
Форум Тема Автор Торрент Отв. Посл. сообщение
./templates/default/images/folder_dl.gif Фильмы 2001-2010 Копия верна / Copie conforme (Аббас Кияростами) [2010 г., драма, HDRip] Varius
1 | 0

1 | 713

3

2011-05-28 08:29
Nugeiro Последнее
./templates/default/images/folder_dl.gif Фильмы 2011-2016 Безумный Макс: Дорога ярости / Mad Max: Fury Road (Джордж Миллер / George Miller) [2015 г., боевик, фантастика, приключения, WEB-DLRip] Dub (Звук с TS) Clavik
1 | 0

1 | 708

37

2016-01-02 08:25
Dracula Последнее
./templates/default/images/folder_dl.gif Фильмы 2011-2016 Безумный Макс: Дорога ярости / Mad Max: Fury Road (Джордж Миллер) [2015 г., фантастика, боевик, триллер, приключения, WEBDL 1080p LQ] AVO Theseus
1 | 0

0 | 1136

79

2015-06-24 16:16
Theseus Последнее
Показать сообщения:    
Ответить на тему

Текущее время: Сегодня 21:01

Часовой пояс: GMT + 3



Вы не можете начинать темы
Вы не можете отвечать на сообщения
Вы не можете редактировать свои сообщения
Вы не можете удалять свои сообщения
Вы не можете голосовать в опросах
Вы не можете прикреплять файлы к сообщениям
Вы не можете скачивать файлы