Today is a free download without charge Download

Louis Sclavis Atlas Trio - Sources (2012) [FLAC|Lossless]

Reply to topic
 
Author
Message

UndegraundMen ®

Longevity: 6 years 9 months

Posts: 25145

Торрент-статистика

Post 03-Jan-2014 11:04

[Quote]

Louis Sclavis Atlas Trio - Sources (2012)- Год: 2012
Жанр: Jazz, ECM
Продолжительность: 00:57:52
Кодек: FLAC (image+.cue, no .log)
Битрейт: Lossless
Источник: Web
Издатель (лейбл): ECM Records
Номер по каталогу: ECM 2282
Треклист:
01. Près d'Hagondange (6:10)
02. Dresseur de nuages (8:20)
03. La Disparition (5:00)
04. A Road to Karaganda (8:43)
05. A Migrant's Day (4:11)
06. Sources (5:21)
07. Quai sud (4:07)
08. Along the Niger (5:46)
09. Outside of Maps (3:06)
10. Sous influences (7:09)

Персонал:

Louis Sclavis: bass clarinet, clarinet
Benjamin Moussay: piano, Fender rhodes, keyboards
Gilles Coronado: electric guitar

Дополнительная информация:

ECMPlayer

Отчёт auCDtect Task manager:

Код:
-----------------------
DON'T MODIFY THIS FILE
-----------------------
PERFORMER: auCDtect Task Manager, ver. 1.6.0 RC1 build 1.6.0.1
Copyright (c) 2008-2010 y-soft. All rights reserved
http://y-soft.org
ANALYZER: auCDtect: CD records authenticity detector, version 0.8.2
Copyright (c) 2004 Oleg Berngardt. All rights reserved.
Copyright (c) 2004 Alexander Djourik. All rights reserved.
FILE: Louis Sclavis Atlas Trio - Sources.flac
  Size: 267500575 Hash: 6EB555DDB8F59BE43AAC9F22BF132472 Accuracy: -m0
  Conclusion: CDDA 86%
  Signature: BBD2F22D8CF0685ED6D227AA7BFE33C3E24D4B1C

Содержимое индексной карты:

Код:
REM GENRE Jazz
REM DATE 2012
REM COMMENT ECM 2282
PERFORMER "Louis Sclavis Atlas Trio"
TITLE "Sources"
FILE "Louis Sclavis Atlas Trio - Sources.flac" WAVE
  TRACK 01 AUDIO
    TITLE "Près d'Hagondange"
    INDEX 01 00:00:00
  TRACK 02 AUDIO
    TITLE "Dresseur de nuages"
    INDEX 01 06:09:53
  TRACK 03 AUDIO
    TITLE "La Disparition"
    INDEX 01 14:29:35
  TRACK 04 AUDIO
    TITLE "A Road to Karaganda"
    INDEX 01 19:29:57
  TRACK 05 AUDIO
    TITLE "A Migrant's Day"
    INDEX 01 28:12:60
  TRACK 06 AUDIO
    TITLE "Sources"
    INDEX 01 32:23:30
  TRACK 07 AUDIO
    TITLE "Quai sud"
    INDEX 01 37:44:04
  TRACK 08 AUDIO
    TITLE "Along the Niger"
    INDEX 01 41:51:11
  TRACK 09 AUDIO
    TITLE "Outside of Maps"
    INDEX 01 47:37:10
  TRACK 10 AUDIO
    TITLE "Sous influences"
    INDEX 01 50:42:65

Dynamic Range Meter:

Код:
foobar2000 1.3 beta 1 / Замер динамического диапазона (DR) 1.1.1
Дата отчёта: 2013-12-25 18:18:44
--------------------------------------------------------------------------------
Анализ:   Louis Sclavis Atlas Trio / Sources
--------------------------------------------------------------------------------
DR         Пики           RMS        Продолжительность трека
--------------------------------------------------------------------------------
DR9       -0.07 дБ   -12.00 дБ      6:10 01-Près d'Hagondange
DR9       -0.21 дБ   -13.45 дБ      8:20 02-Dresseur de nuages
DR9       -0.19 дБ   -11.76 дБ      5:00 03-La Disparition
DR8       -0.17 дБ   -11.34 дБ      8:43 04-A Road to Karaganda
DR12      -0.24 дБ   -14.68 дБ      4:11 05-A Migrant's Day
DR8       -0.17 дБ   -11.37 дБ      5:21 06-Sources
DR10      -0.19 дБ   -14.01 дБ      4:07 07-Quai sud
DR9       -0.07 дБ   -12.43 дБ      5:46 08-Along the Niger
DR10      -0.23 дБ   -13.23 дБ      3:06 09-Outside of Maps
DR10      -0.13 дБ   -13.70 дБ      7:09 10-Sous influences
--------------------------------------------------------------------------------
Количество треков:   10
Реальные значения DR:   DR10
Частота:    44100 гц
Каналов:    2
Бит на сэмпл:      16
Битрейт:    616 кбит/с
Кодек:      FLAC
================================================================================
Время раздачи: 24/7
Other forum [Profile] [PM]
Display posts from previous:    
Reply to topic

The time now is: Today 05:13

All times are GMT + 3 Hours



You cannot post new topics in this forum
You cannot reply to topics in this forum
You cannot edit your posts in this forum
You cannot delete your posts in this forum
You cannot vote in polls in this forum
You cannot attach files in this forum
You cannot download files in this forum